вход на сайт

Имя пользователя :
Пароль :

Восстановление пароля Регистрация
(2009) Земфира / Z-Sides (Rock) [FLAC(image+.cue), lossless ]
Рейтинг:
(голосов: 1)



[img]{THEME}/images/logopost.png[/img]



Исполнитель: Земфира
Альбом: Z-Sides
Тип альбома: Студийный
Год выпуска: 2009
Жанр: Rock
Формат: FLAC(image+.cue)
Битрейт: lossless
Log-файл: Exact Audio Copy
Продолжительность: 00:27:07

Tреклист:
01. Петарды [2:56.15]
02. Гаражи [2:47.68]
03. Из головы [3:19.62]
04. Австралия [2:20.37]
05. Интересно [2:53.73]
06. Поцелуи [2:45.15]
07. Для тебя [2:41.38]
08. Антананариву [2:52.23]
09. Не стреляйте [4:30.16]

Отчет EAC ▼TextExact Audio Copy V0.99 prebeta 4 from 23. January 2008

Отчёт EAC об извлечении, выполненном 17. августа 2010, 17:23

Земфира / Z-Sides

Дисковод: _NEC DVD_RW ND-4571A Adapter: 0 ID: 1

Режим чтения : Достоверность
Использование точного потока : Да
Отключение кэша аудио : Да
Использование указателей C2 : Нет

Коррекция смещения при чтении : 48
Способность читать области Lead-in и Lead-out : Нет
Заполнение пропущенных сэмплов тишиной : Да
Удаление блоков с тишиной в начале и конце : Нет
При вычислениях CRC использовались нулевые сэмплы : Да
Интерфейс : Установленный внешний ASPI-интерфейс

Выходной формат : Внутренние WAV-операции
Формат сэмплов : 44.100 Гц; 16 бит; стерео

TOC извлечённого CD

Трек | Старт | Длительность | Начальный сектор | Конечный сектор
---------------------------------------------------------------------
1 | 0:00.00 | 2:56.15 | 0 | 13214
2 | 2:56.15 | 2:47.68 | 13215 | 25807
3 | 5:44.08 | 3:19.62 | 25808 | 40794
4 | 9:03.70 | 2:20.37 | 40795 | 51331
5 | 11:24.32 | 2:53.73 | 51332 | 64379
6 | 14:18.30 | 2:45.15 | 64380 | 76769
7 | 17:03.45 | 2:41.38 | 76770 | 88882
8 | 19:45.08 | 2:52.23 | 88883 | 101805
9 | 22:37.31 | 4:30.16 | 101806 | 122071

Характеристики диапазона извлечения и сообщения об ошибках

Выбранный диапазон

Имя файла J:Lossless_MusicЗемфира - Z-Sides.wav

Пиковый уровень 97.6 %
Качество диапазона 100.0 %
CRC копии 7AD10549
Копирование... OK

Ошибок не произошло

AccurateRip: сводка

Трек 1 нет в базе данных
Трек 2 нет в базе данных
Трек 3 нет в базе данных
Трек 4 нет в базе данных
Трек 5 нет в базе данных
Трек 6 нет в базе данных
Трек 7 нет в базе данных
Трек 8 нет в базе данных
Трек 9 нет в базе данных

Ни одного трека нет в базе AccurateRip

Конец отчёта
Отчет Audiochecker ▼
TextStarted at: пятница, 13. 05. 2011. - 15:04.10
1 file found

1 -===- D:Z-SidesЗемфира - Z-Sides.flac
Extracted successfully
Conclusion: this track is CDDA with probability 100%
Tempfile successfully deleted.


Finished at: пятница, 13. 05. 2011. - 15:13.09 (operation time: 0:08.58)
Релиз Группы "Virtus"

Стол заказов / Вступление в РГ / Благодарности, критика и другое


8117e19b03aba2b2cefc161ca2d96e7d16c60dc2(2009) Земфира / Z-Sides (Rock) [FLAC(image+.cue), lossless ] (2009) Земфира / Z-Sides (Rock) [FLAC(image+.cue), lossless ] " />

Аплоадер: Админ, дата: 12-05-2011, 22:32, торрент скачан: 359 раз

Понравилась раздача? Посмотрите эти:
  • (2000) Lenny Kravitz / Greatest Hits (Rock, Funk) [FLAC (image+.cue), lossl ...
  • (2002) a-ha / Lifelines (Alternative Rock, Synth-pop ) [FLAC (image + .cue ...
  • (2012) Григорий Лепс / Полный вперёд (Шансон) [FLAC (image+.cue), Lossless ...
  • (2009) НОЧНЫЕ СНАЙПЕРЫ — Южный полюс (русский рок, сингл) [FLAC (lossless), ...
  • (2009) СЕРГЕЙ НАГОВИЦЫН / The Best Of - 2009 (Шансон) [FLAC (image+.cue) lo ...
  • (2010) Мафик / Ангел (Шансон) [FLAC(image+cue), lossless]
  • (1994) Joy / Grand Collection (EuroDisco) [FLAC (image+.cue) lossless]
  • (2006) Батырхан Шукенов/ Отан Ана (Pop) [FLAC (image+.cue) lossless]
  • (2006) Tokio / puls 200 (Alternative Rock / Pop Rock) [FLAC (image+.cue) lo ...
  • (2010) Смоки МО / Выход Из Темноты (Rap) [APE (image+ cue), lossless]
  • (2011) Within Temptation / The Unforgiving (Symphonic Gothic Metal) [FLAC ( ...
  • (2011) Blues Cousins / KGB Blues (Blues Rock) [FLAC (image+.cue), lossless] ...
  • (2011) АукцЫон / Юла (Rock) [APE (image+.cue), lossless]
  • (Дискография, 1986 - 1999) Crimson Glory (Progressive Heavy Metal) [FLAC (i ...
  • (2009) Clubroot / Clubroot (Drum & Bass, Dubstep) [FLAC (image + .сue) ...
  • (2001, сборник) Технология — Лучшие песни (Поп) [FLAC, lossless]
  • (2007) ЛАСКОВЫЙ МАЙ - Лучшие Песни. Твоя Коллекция (2CD) (Pop) [FLAC (image ...
  • ( 2001) Воскресение / Звездная коллекция (Rock) [FLAC (image+.cue) lossless ...
  • (2010) Lara Fabian / The Best of (2CD Limited Edition) (Pop) [Flac(image+.c ...
  • (2006) Би-2 / Лучшие песни (Rock) [FLAC (image+.cue), lossless]
  • (1995) Юрий Шатунов / Ты помнишь... (Pop) [FLAC(image+.cue), lossless]
  • (1995) Steve Morse Band / Structural Damage (Instrumental Rock/Blues Rock/J ...
  • (2000) Парк Горького (Gorky Park) / The Best (Glam Metal/Hard Rock) [FLAC ...
  • (2004) Ex-Сектор Газа / Огненный рай (Punk-Rock) [FLAC (image+.cue), lossle ...
  • (2008) Студия 80 / Придуманный Мир (Pop) [FLAC (image+.cue), lossless]
  • Информация
    Посетители, находящиеся в группе Гости, не могут оставлять комментарии к данной публикации.