вход на сайт

Имя пользователя :
Пароль :

Восстановление пароля Регистрация
(2009) Воскресение / Лучшее (2CD) (Rock) [FLAC (image+.cue), lossless]
Рейтинг:
(голосов: 1)



[img]{THEME}/images/logopost.png[/img]



Исполнитель:Воскресение
Альбом:Лучшее (2CD)
Тип альбома: Сборник
Жанр: Rock
Страна-производитель диска: Россия
Год издания диска: 2009
Издатель (лейбл): Star Mark
Номер по каталогу: 23575-1; 23575-2
Страна: Россия
Формат: FLAC (image+.cue)
Битрейт: lossless
Продолжительность: 02:36:29

Треклист:▼
CD1 (01:19:40)
01. - Кто виноват (4:17)
02. - В моей душе осадок зла (4:37)
03. - Один взгляд назад (3:48)
04. - По дороге разочорований (5:23)
05. - Я ни разу за морем небыл (3:20)
06. - Снежная баба (3:07)
07. - Случилось что-то в городе моем (4:07)
08. - Так бывает (2:56)
09. - Зеркало мира (3:23)
10. - Ночная птица (4:13)
11. - Музыкант (5:44)
12. - Лето (3:06)
13. - Сон (4:29)
14. - Сколько было звезд (3:26)
15. - Я сам из тех... (4:28)
16. - Когда поймешь умом... (3:51)
17. - Хороший парень (3:11)
18. - Поиграй со мной, гроза (3:20)
19. - Городок (4:27)
20. - Я тоже был... (4:27)

CD2 (01:18:50)
01. - Все сначала (3:43)
02. - Есть у меня (2:57)
03. - Не оставь меня (3:56)
04. - Я привык бродить один (4:12)
05. - Спешит моя радость (4:25)
06. - Поезд (3:03)
07. - Сотворю тебе мир (4:11)
08. - Друзьям (3:44)
09. - Вера, Надежда, Любовь (3:47)
10. - Дороги наши разошлись (3:20)
11. - В Жизни, Как В Темной Чаще (3:53)
12. - Воскресенье (6:52)
13. - Радуюсь (3:28)
14. - Атлантида (3:29)
15. - Когда ты смотришь на меня (3:20)
16. - Не торопясь (4:40)
17. - Листопад (4:00)
18. - Спой со мной (4:08)
19. - Посмотри, как я живу (4:31)
20. - Делай свое дело (3:11)

"Отчет EAC:" ▼"CD1" ▼TextExact Audio Copy V0.99 prebeta 5 from 4. May 2009

EAC extraction logfile from 30. January 2011, 22:04

Воскресение / Лучшее - CD1

Used drive : Optiarc DVD RW AD-7241S Adapter: 5 ID: 0

Read mode : Secure
Utilize accurate stream : Yes
Defeat audio cache : Yes
Make use of C2 pointers : No

Read offset correction : 48
Overread into Lead-In and Lead-Out : No
Fill up missing offset samples with silence : Yes
Delete leading and trailing silent blocks : No
Null samples used in CRC calculations : Yes
Used interface : Native Win32 interface for Win NT & 2000

Used output format : User Defined Encoder
Selected bitrate : 1024 kBit/s
Quality : High
Add ID3 tag : No
Command line compressor : C:Program FilesExact Audio CopyFlac lac.exe
Additional command line options : -8 -V %s

TOC of the extracted CD

Track | Start | Length | Start sector | End sector
---------------------------------------------------------
1 | 0:00.00 | 4:16.58 | 0 | 19257
2 | 4:16.58 | 4:36.67 | 19258 | 40024
3 | 8:53.50 | 3:48.02 | 40025 | 57126
4 | 12:41.52 | 5:22.57 | 57127 | 81333
5 | 18:04.34 | 3:20.13 | 81334 | 96346
6 | 21:24.47 | 3:07.03 | 96347 | 110374
7 | 24:31.50 | 4:07.09 | 110375 | 128908
8 | 28:38.59 | 2:56.00 | 128909 | 142108
9 | 31:34.59 | 3:23.36 | 142109 | 157369
10 | 34:58.20 | 4:12.49 | 157370 | 176318
11 | 39:10.69 | 5:44.01 | 176319 | 202119
12 | 44:54.70 | 3:05.71 | 202120 | 216065
13 | 48:00.66 | 4:29.10 | 216066 | 236250
14 | 52:30.01 | 3:25.68 | 236251 | 251693
15 | 55:55.69 | 4:27.65 | 251694 | 271783
16 | 60:23.59 | 3:51.01 | 271784 | 289109
17 | 64:14.60 | 3:10.68 | 289110 | 303427
18 | 67:25.53 | 3:20.07 | 303428 | 318434
19 | 70:45.60 | 4:27.01 | 318435 | 338460
20 | 75:12.61 | 4:26.58 | 338461 | 358468

Range status and errors

Selected range

Filename C:DAEВоскресение - Лучшее - CD1.wav

Peak level 100.0 %
Range quality 99.9 %
Test CRC 3708D01B
Copy CRC 3708D01B
Copy OK

No errors occurred

AccurateRip summary

Track 1 not present in database
Track 2 not present in database
Track 3 not present in database
Trac
6ddf1b775700a8a1509e351982721cdbd8a3aaa3(2009) Воскресение / Лучшее (2CD) (Rock) [FLAC (image+.cue), lossless] (2009) Воскресение / Лучшее (2CD) (Rock) [FLAC (image+.cue), lossless] " />

Аплоадер: Админ, дата: 5-05-2011, 17:55, торрент скачан: 359 раз

Понравилась раздача? Посмотрите эти:
  • (1996) Константин Никольский / Один взгляд назад (Rock ) [APE (image + .cu ...
  • (2013) Мумий Тролль / SOS Матросу - 2013, (Rock) [FLAC (image+.cue), lossle ...
  • (2013) Depeche Mode - Heaven (CD Maxi-Single) (Synthpop) [FLAC (image+.cue) ...
  • (2006) Аквариум / Беспечный русский бродяга (Rock) [FLAC (image+.cue) lossl ...
  • (2010)Scorpions/Sting In The Tail [FLAC (tracks+cue), lossless]
  • (1989) Kaoma / Lambada (lambada / latin / ethnic) [FLAC (image+.cue), lossl ...
  • (2010) Ассаи / Лифт (Rap) [FLAC(image+.cue), lossless]
  • (2011) Scar Symmetry / The Unseen Empire (Melodic Death Metal) [FLAC (image ...
  • (2011) Sepultura / Kairos (Thrash Metal) [Flac(image+.cue)lossless]
  • (Дискография, 1988-2011) Kingdom Come (Hard&Heavy,Glam Metal) [FLAC (image+ ...
  • (2012) Linkin Park / Burn It Down (Alternative Rock) (Single) [FLAC (image+ ...
  • (1976) The Eagles / Hotel California [Japan Remastered] (Country Rock) [FLA ...
  • (2011) Linkin Park / Iridescent (Alternative Rock) [FLAC(image+.cue), lossl ...
  • (Дискография 1979-2004) Воскресенье (Русский рок) [MP3 128-320/CBR]
  • (2009) Чиж & Co / Лучшее. Золотая коллекция (Rock) [FLAC (image+.cue), loss ...
  • (2011) JORN / Live In Black (Heavy/Progressive Metal ) [FLAC (image+.cue), ...
  • (2011) Rammstein / Mein Land (Neue Deutsche Harte, Industrial, Tanz-Metal) ...
  • (2011) Adriano Celentano / Facciamo Finta Che Sia Vero (POP) [FLAC (image+. ...
  • (2011) Сурганова & Оркестр / Увидимся скоро (Rock) [FLAC (image+.cue), loss ...
  • (2011) Metallica / Beyond Magnetic (Thrash Metal) [FLAC (image+.cue), lossl ...
  • (2012) Adrenaline Mob / Omerta (Heavy Metal/Progressive/Nu-Metal) [FLAC (im ...
  • (2012) Crippled Black Phoenix / (Mankind) The Crafty Ape (Alternative/Indie ...
  • (2012) Fox / 2012 (Melodic Hard Rock) [FLAC (image +.cue), lossless]
  • (2011) Lou Reed & Metallica / Lulu (Heavy Metal, Hard Rock) [FLAC (image+.c ...
  • (2010) Punish My Heaven / First Punishment (Melodic Death Metal, Metalcore) ...
  • Информация
    Посетители, находящиеся в группе Гости, не могут оставлять комментарии к данной публикации.