вход на сайт

Имя пользователя :
Пароль :

Восстановление пароля Регистрация
(2001, Game OST) Император: Битва за Дюну / Emperor: Battle For Dune (Electronic, Rock, Embiement, Techno) [APE (image+.cue), lossless]
Рейтинг:
(голосов: 1)



[img]{THEME}/images/logopost.png[/img]



Emperor: Battle For Dune

Жанр: Game OST, Epic electronic, Rock, Embiement, Techno
Год выпуска диска: 2001
Лэйбл: Electronic Arts

Качество: lossless
Формат: APE Insane (image+.cue)
EAC-log: отсутствует
DISCID: CA10110D

Продолжительность: 1:08:33

Трэклист:
01. The War Begins..........(4:34)
02. The Machine.............(4:51)
03. Not an Option...........(3:53)
04. Unstoppable.............(5:50)
05. Ride the Worm...........(5:35)
06. Sabotage................(4:20)
07. Harkonnen Force.........(5:30)
08. Assembling the Troops...(7:42)
09. Ghola...................(3:48)
10. Legacy..................(6:14)
11. The Specimen............(5:07)
12. The Spice Must Flow.....(4:48)
13. Tribute to Evil.........(6:22)

Рецензия на AG.ru: Музыка в Emperor, как и положено Westwood, великолепна. Пригласив для работ над саундтреком сразу трех композиторов, авторы наделили каждый из Домов его собственным музыкальным стилем. Атридисы тяготеют к насыщенной восточными сэмплами симфонии. Ордосы кидаются в бой под совершенно запредельную мешанину из индастриал, брейк-бита и эмбиента. Харконненам достались мелодичные риффы бас-гитар и оттенок грусти, крайне нетипичный для столь воинственного Дома. Три часа восемь минут меломанского счастья...

Рецензия от game-ost.ru: Никто не спорит, что Westwood (земля ей пухом) отличалась умением создавать великолепную музыку, да ещё и идеально вписывать её в процесс игры. Emperor не стал исключением.
Над саундтреком работало три человека. Фрэнк Клепаки писал музыкальную тему меню, а также композиции к расе Атрейдесов, благородных и честных бойцов. По жанру это лёгкая электроника. Дэвид Аркенстоун озвучивал Харконеннов, безжалостных и бескомпромиссных машин смерти, и здесь мы имеем рок и эмбиэнт. А Жаррид Мендельсон, как ни странно, приложился к Ордосам, этим коварным и подлым наёмникам. Тут получилась вкусная смесь из транса, техно и электроники.

Хотя из 36 внутриигровых мелодий в саундтрек попали только 13, этого вполне достаточно. Но всё равно странно - почему, например, вставили вместо Plan of Attack намного худший Sabotage? Неясно. Тем не менее, в самом саундтреке намешано не меньше, чем в Splinter Cell Chaos Theory. Здесь и гордый, возвышенный марш Assembling the Troops, и кислотно-наркотический Not an Option, и тяжёлый, жёсткий Harkonnen Force... Слушать альбом можно до бесконечности. Лишь только слабые, очень слабые 4, 5 и 6 треки портят идиллию.

Слёзы падают с лица на клавиатуру, прожигая её насквозь... Я тянусь за следующей клавой в сейф, чтобы допечатать статью, и продолжаю...

По-моему, 68 с половиной минут - слишком мало для ТАКОГО. Могли же выпустить три диска, на каждом из которых, был бы саундтрек для каждого Дома. В ресурсах игры даже расставлено всё было как полноценный альбом, только обнови звучание и запиши на диск! Так нет же. Было жалко денег. А жалеть придётся нам, слушателям...

Саундтрек рекомендуется минздравом как средство для навевания ностальгии. Оценка -- 9 из 10.

.CUE:
▼REM GENRE Soundtrack
REM DATE 2001
REM DISCID CA10110D
REM COMMENT "ExactAudioCopy v0.95b4"
PERFORMER "Various"
TITLE "Emperor: Battle for Dune Official Soundtrack"
FILE "Emperor - Battle for Dune Official Soundtrack.ape" WAVE
TRACK 01 AUDIO
TITLE "The War Begins"
PERFORMER "Frank Klepacki"
FLAGS DCP
INDEX 01 00:00:00
TRACK 02 AUDIO
TITLE "The Machine"
PERFORMER "David Arkenstone"
FLAGS DCP
INDEX 01 04:33:43
TRACK 03 AUDIO
TITLE "Not an Option"
PERFORMER "Jarrid Mendelson"
FLAGS DCP
INDEX 01 09:24:16
TRACK 04 AUDIO
TITLE "Unstoppable"
PERFORMER "David Arkenstone"
&nbs
c346ec3695de3fd9ce8f4b5bc3ad609e05518c01(2001, Game OST) Император: Битва за Дюну / Emperor: Battle For Dune (Electronic, Rock, Embiement, Techno) [APE (image+.cue), lossless] (2001, Game OST) Император: Битва за Дюну / Emperor: Battle For Dune (Electronic, Rock, Embiement, Techno) [APE (image+.cue), lossless] " />

Аплоадер: Админ, дата: 23-05-2009, 20:21, торрент скачан: 359 раз

Понравилась раздача? Посмотрите эти:
  • (2012) The Doors - L.A. Woman(1971)[lp] [24bit - 96kHz] [FLAC(image+.cue), ...
  • [Anthology] Dune 1-4 (1992-2001/Westwood/RUS|ENG)[ R.G. Catalyst]
  • (2013) Linkin Park & Steve Aoki / A Light That Never Comes (Electronic Rock ...
  • (2013) Empire Of The Sun / Ice On The Dune (Synthpop / New Wave / Electroni ...
  • [Трейлер] Император / Emperor (Питер Веббер, драма, военный, история) [HDRi ...
  • [2009] Placebo - Battle For The Sun {Limited Box Set} (Alt.Rock) [MP3, 256C ...
  • (Soundtrack, 2004) Massive Attack - Danny The Dog / Дэнни Цепной Пес - [F ...
  • [LP] (2009) Kraftwerk / The Mix (Electronic) [ APE (image+.cue), lossless]
  • (2001) Андрей Алексин / Ш*лава (Pop) [FLAC (image+.cue), lossless]
  • (2012) Linkin Park / Burn It Down (Alternative Rock) (Single) [FLAC (image+ ...
  • (Дискография, 2006-2011) Art of Dying (Alt.Rock/ Post-Grunge) [FLAC (tracks ...
  • Emperor Battle for Dune (сборник)
  • The Last Emperor: Fedor_HDNet Fights(Бои без правил, 2009) [HDTVrip]
  • Lord of the Rings The Battle for Middle Earth / Властелин Колец Битва за Ср ...
  • Император: Битва за Дюну / Emperor: Battle for Dune (2001, полностью на рус ...
  • Антология DUNE (Westwood/1991-2003/(ENG/RUS))[P]
  • (1992) EXXOS / Dune: Spice Opera (OST) [mp3, 128kbps/CBR]
  • (2005, Сборник) Flying steps | BreakDance Battle (Techno|Jumpstyle|Electron ...
  • [PS1] DUNE 2000 (1999 / RUS / PAL / BIN)
  • (1993) Frank Klepacki / Paul Mudra / Dwight Okahara / Dune II: The Battle f ...
  • Информация
    Посетители, находящиеся в группе Гости, не могут оставлять комментарии к данной публикации.