вход на сайт

Имя пользователя :
Пароль :

Восстановление пароля Регистрация
(2012) Tom Tykwer, Johnny Klimek, Reinhold Heil / Облачный атлас / Cloud Atlas (Score) [FLAC (tracks+.cue), lossless]
Рейтинг:
(голосов: 1)



[img]{THEME}/images/logopost.png[/img]




Исполнитель:Tom Tykwer, Johnny Klimek, Reinhold Heil
Страна: США
Альбом:Облачный атлас / Cloud Atlas
Год выпуска:2012
Жанр:Score
Аудиокодек: FLAC (*.flac)
Тип рипа: tracks+.cue
Битрейт: lossless
Продолжительность: 01:19:03


Облачный атлас / Cloud Atlas: — историко-фантастический фильм, созданный Томом Тыквером, Энди и Ланой Вачовски. Режиссёры написали сценарий на основе одноимённого романа Дэвида Митчелла, изданного в 2004 году. Бюджет фильма составил 102 миллиона долларов. Несмотря на то, что часть этой суммы была получена от Warner Bros., основной фонд сформирован из независимых источников. Таким образом, «Облачный атлас» является одним из самых дорогих независимых фильмов всех времен. Премьера фильма состоялась 9 сентября 2012 года на 37-ом ежегодном кинофестивале в Торонто. По завершении показа зрители в течение 10 минут стоя аплодировали актёрам и съёмочной группе. В широкий прокат фильм вышел 26 октября 2012 года. Премьера в России — 8 ноября 2012.

Tреклист: ▼
01. Prelude: The Atlas March (1:15)
02. Cloud Atlas Opening Title (3:47)
03. Travel To Edinburgh (1:43)
04. Luisas Birthmark (3:00)
05. Cavendish In Distress (1:23)
06. Papa Song (4:15)
07. Slooshas Hollow (2:59)
08. Sonmi-451 Meets Chang (3:34)
09. Wont Let Go (4:10)
10. Kesselring (1:55)
11. The Escape (5:43)
12. Temple Of Sacrifice (2:03)
13. Catacombs (1:36)
14. Adieu (4:15)
15. New Direction (1:47)
16. All Boundaries Are Conventions (2:39)
17. The Message (2:13)
18. Chasing Luisa Rey (4:54)
19. Sonmis Discovery (3:23)
20. Death Is Only A Door (3:48)
21. Cloud Atlas Finale (4:18)
22. The Cloud Atlas Sextet for Orchestra (4:57)
23. Cloud Atlas End Title (7:56)


Лог XLD ▼TextX Lossless Decoder version 20121027 (142.1)

XLD extraction logfile from 2012-11-06 12:42:13 -0800

Tom Tykwer / Cloud Atlas

Used drive : MATSHITA DVD-R UJ-898 (revision HC10)

Ripper mode : XLD Secure Ripper
Disable audio cache : OK for the drive with a cache less than 1375KiB
Make use of C2 pointers : NO
Read offset correction : 102
Max retry count : 20
Gap status : Analyzed, Appended

TOC of the extracted CD
Track | Start | Length | Start sector | End sector
---------------------------------------------------------
1 | 00:00:00 | 01:15:00 | 0 | 5624
2 | 01:15:00 | 03:46:72 | 5625 | 22646
3 | 05:01:72 | 01:42:59 | 22647 | 30355
4 | 06:44:56 | 03:00:32 | 30356 | 43887
5 | 09:45:13 | 01:23:02 | 43888 | 50114
6 | 11:08:15 | 04:15:36 | 50115 | 69275
7 | 15:23:51 | 02:59:04 | 69276 | 82704
8 | 18:22:55 | 03:33:72 | 82705 | 98751
9 | 21:56:52 | 04:09:70 | 98752 | 117496
10 | 26:06:47 | 01:54:40 | 117497 | 126086
11 | 28:01:12 | 05:43:20 | 126087 |  
ea2eae839a306e60020864ab2f1948a082bd959a(2012) Tom Tykwer, Johnny Klimek, Reinhold Heil / Облачный атлас / Cloud Atlas (Score) [FLAC (tracks+.cue), lossless] (2012) Tom Tykwer, Johnny Klimek, Reinhold Heil / Облачный атлас / Cloud Atlas (Score) [FLAC (tracks+.cue), lossless] " />

Аплоадер: Админ, дата: 17-12-2012, 13:28, торрент скачан: 359 раз

Понравилась раздача? Посмотрите эти:
  • Облачный атлас / Cloud Atlas (Лана Вачовски, Том Тыквер, Энди Вачовски, фан ...
  • [iPhone, iPod] Облачный атлас / Cloud Atlas (Лана Вачовски, фантастика, дра ...
  • Облачный атлас / Cloud Atlas (Лана Вачовски, Том Тыквер, Энди Вачовски. фан ...
  • Облачный атлас / Cloud Atlas (Лана Вачовски, Том Тыквер, Энди Вачовски, фан ...
  • Облачный атлас / Cloud Atlas (Лана Вачовски, Том Тыквер, Энди Вачовски, фан ...
  • Облачный атлас / Cloud Atlas (Лана Вачовски, Том Тыквер, Энди Вачовски, фан ...
  • Облачный атлас / Cloud Atlas (Лана Вачовски, Том Тыквер, Энди Вачовски, фан ...
  • Облачный атлас / Cloud Atlas (Лана Вачовски, Том Тыквер, Энди Вачовски, фан ...
  • Облачный атлас / Cloud Atlas (Лана Вачовски, Том Тыквер, Энди Вачовски, фан ...
  • (2012) Hans Zimmer / The Dark Knight Rises (Film score) [FLAC (tracks+.cu ...
  • Облачный атлас / Cloud Atlas (Лана Вачовски, Том Тыквер, Энди Вачовски, фан ...
  • Облачный атлас / Cloud Atlas (Лана Вачовски, Том Тыквер, Энди Вачовски, фан ...
  • Облачный атлас / Cloud Atlas (Лана Вачовски, Том Тыквер, Энди Вачовски, фан ...
  • Облачный атлас / Cloud Atlas (Лана Вачовски, Том Тыквер, Энди Вачовски, фан ...
  • Облачный атлас / Cloud Atlas (Лана Вачовски, Том Тыквер, Энди Вачовски, фан ...
  • Облачный атлас / Cloud Atlas (Лана Вачовски, Том Тыквер, Энди Вачовски, фан ...
  • (2012) Lana Del Rey / Born To Die (Indie Pop) [FLAC (tracks+.cue), lossless ...
  • (2012) Boy Kid Cloud / A Better Version of Me (Dubstep) [mp3, 320/CBR]
  • [Трейлер] Облачный атлас / Cloud Atlas (Лана Вачовски, Том Тыквер, Энди Ва ...
  • [Трейлер] Облачный атлас / Cloud Atlas (Лана Вачовски, Том Тыквер, Энди Вач ...
  • Информация
    Посетители, находящиеся в группе Гости, не могут оставлять комментарии к данной публикации.