вход на сайт

Имя пользователя :
Пароль :

Восстановление пароля Регистрация
(2012, Сборник) VA / World of Warcraft: Mists of Pandaria (Score, Soundtrack ) [FLAC (tracks+.cue), lossless]
Рейтинг:
(голосов: 1)



[img]{THEME}/images/logopost.png[/img]



Сборник
Исполнитель: Various Artists
Страна: EU
Название сборника: World of Warcraft: Mists of Pandaria
Год выпуска: 2012
Жанр: Score, Soundtrack
Аудиокодек: FLAC (*.flac)
Тип рипа: tracks+.cue
Битрейт: lossless
Продолжительность: 01:17:57



Tреклист:
01. Heart Of Pandaria [7:57]
02. Why Do We Fight? [3:44]
03. The Wandering Isle [2:32]
04. Temple Of The Fife Dawns [1:58]
05. The Travelers Path [5:48]
06. Way Of The Monk [3:46]
07. Sha (Spirits Of Hatred) [3:51]
08. The August Celestials [4:14]
09. Shado-Pan [4:52]
10. Thunder King [2:09]
11. The Path Of The Huojin [4:20]
12. Going Hozen [2:27]
13. Valley Of The Four Winds [5:32]
14. The Path Of Tushui [5:16]
15. Go Ask The River [3:17]
16. Townlong Steppes [4:45]
17. The Golden Lotus [1:53]
18. Wisdom Of Yulon [5:38]
19. Stormstout Brew [1:27]
20. Serpent Riders [2:33]

Лог создания рипа ▼TextExact Audio Copy V1.0 beta 3 from 29. August 2011

EAC extraction logfile from 24. September 2012, 15:13

Russell Brower, Neal Acree, Sam Cardon, Edo Guidotti & Jeremy Soule / World of Warcraft – Mists of Pandaria

Used drive : TSSTcorpCD/DVDW SH-S183A Adapter: 1 ID: 1

Read mode : Secure
Utilize accurate stream : Yes
Defeat audio cache : Yes
Make use of C2 pointers : No

Read offset correction : 6
Overread into Lead-In and Lead-Out : No
Fill up missing offset samples with silence : Yes
Delete leading and trailing silent blocks : No
Null samples used in CRC calculations : Yes
Used interface : Native Win32 interface for Win NT & 2000
Gap handling : Appended to previous track

Used output format : User Defined Encoder
Selected bitrate : 768 kBit/s
Quality : High
Add ID3 tag : No
Command line compressor : C:Program Files (x86)Exact Audio CopyFlacflac.exe
Additional command line options : -8 -V -T “ARTIST=%artist%” -T “TITLE=%title%” -T “ALBUM=%albumtitle%” -T “DATE=%year%” -T “TRACKNUMBER=%tracknr%” -T “GENRE=%genre%” -T “PERFORMER=%albuminterpret%” -T “COMPOSER=%composer%” %haslyrics%–tag-from-file=LYRICS=”%lyricsfile%”%haslyrics% -T “ALBUMARTIST=%albumartist%” -T “DISCNUMBER=%cdnumber%” -T “TOTALDISCS=%totalcds%” -T “TOTALTRACKS=%numtracks%” -T “COMMENT=%comment%” %source% -o %dest%

TOC of the extracted CD

Track | Start | Length | Start sector | End sector
———————————————————
1 | 0:00.00 | 7:57.00 | 0 | 35774
2 | 7:57.00 | 3:43.37 | 35775 | 52536
3 | 11:40.37 | 2:32.03 | 52537 | 63939
4 | 14:12.40 | 1:57.41 | 63940 | 72755
5 | 16:10.06 | 5:48.29 | 72756 | 98884
6 | 21:58.35 | 3:45.74 | 98885 | 115833
7 | 25:44.34 | 3:50.43 | 115834 | 133126
8 | 29:35.02 | 4:13.49 | 133127 | 152150
9 | 33:48.51 | 4:52.06 | 152151 | 174056
10 | 38:40.57 | 2:08.73 | 174057 | 183729
11 | 40:49.55 | 4:19.74 | 183730 | 203228
12 | 45:09.54 | 2:26.67 | 203229 | 214245
13 | 47:36.46 | 5:32.10 | 214246 | 239155
14 | 53:08.56 | 5:15.36 | 239156 | 262816
15 | 58:24.17 | 3:17.00 | 262817 | 277591
16 | 61:41.17 | 4:45.01 | 277592 | 298967
17 | 66:26.18 | 1:52.56 | 298968 | 307423
18 | 68:18.74 | 5:38.23 | 307424 | 332796
19 | 73:57.22 | 1:27.20 | 332797 | 339341
20 | 75:24.42 | 2:32.63 | 339342 | 350804

Track 1

Filename E:DownloadsRussell Brower, Neal Acree, Sam Cardon, Edo Guidotti & Jeremy Soule – World of Warcraft – Mists of Pandaria1 – Heart of Pandaria.wav

Pre-gap length 0:00:02.00

Peak level 94.4 %
Extraction speed 5.5 X
Track quality 100.0 %
Test CRC 2FD40D34
Copy CRC 2FD40D34
Track not present in AccurateRip database
Copy OK

Track 2

Filename E:DownloadsRussell Brower, Neal Acree, Sam Cardon, Edo Guidotti & Jeremy Soule – World of Warcraft – Mists of Pandaria2 – Why Do We Fight.wav

Peak level 94.4 %
Extraction speed 5.7 X
Track quality 100.0 %
Test CRC 7ED1A45C
Copy CRC 7ED1A45C
Track not present in AccurateRip database
Copy OK

Track 3

Filename E:DownloadsRussell Brower, Neal Acree, Sam Cardon, Edo Guidotti & Jeremy Soule – Wo
e0388c4f6f04a486fde156d778ba98c0bbaec0a5 (2012, Сборник) VA / World of Warcraft: Mists of Pandaria (Score, Soundtrack ) [FLAC (tracks+.cue), lossless] (2012, Сборник) VA / World of Warcraft: Mists of Pandaria (Score, Soundtrack ) [FLAC (tracks+.cue), lossless] " />

Аплоадер: Админ, дата: 25-09-2012, 16:15, торрент скачан: 359 раз

Понравилась раздача? Посмотрите эти:
  • (2013) Hans Zimmer / Человек из стали / Man Of Steel [Deluxe Edition] (2 CD ...
  • (2011) Coldplay / Mylo Xyloto (Alternative Rock) [FLAC (tracks+.cue), lossl ...
  • (2012) Katie Melua / Secret Symphony (Jazz Pop, Vocal Jazz) [FLAC (tracks+. ...
  • (2012) Marilyn Manson / Born Villain (Industrial, Shock-Rock) [FLAC (tracks ...
  • (2012) Paul Van Dyk / Evolution (Progressive House, Trance) [FLAC (tracks+. ...
  • (2012) Marconi Union / Different Colours (Post Rock, Downtempo, Ambient) [F ...
  • (2008, Сборник) VA / Relax Piano - Yesterday - Trai Tim Mua Thu - Vol.7 (Ne ...
  • (2012) Tomandandy / Resident Evil: Retribution (Score, Soundtrack)[FLAC (tr ...
  • (1996) The Rasmus / Peep (Finnish Version) (Alternative Rock) [FLAC (tracks ...
  • (2012) Usher / Looking 4 Myself (Deluxe Version) (R&B, Soul) [FLAC (tracks+ ...
  • (2011) Mistabishi / Trip (Drum & Bass, Breakbeat) [FLAC (tracks+.cue), loss ...
  • (2011) Evanescence / Evanescence (Alternative Rock) [FLAC (tracks+.cue), lo ...
  • (2012) Les Friction / Les Friction (Alt. Rock/Neo-Classical/Orchestral) [FL ...
  • (2011) SeeS / The enD (Progressive/Math Metal) [FLAC (tracks+.cue), lossles ...
  • (2012) Our Lady Peace / Curve (Alternative/Rock) [FLAC (tracks+.cue), lossl ...
  • (2012) Thousand Foot Krutch / The End Is Where We Begin (Christian/Alt.Rock ...
  • (2012) Nine Lashes / World We View (Alt.Rock/Alt.Metal/Christian) [FLAC (tr ...
  • (2011) Ink Stained Promises / Relations. (Metalcore, Hardcore) [FLAC (track ...
  • (2012) Dash Berlin / #musicislife (Trance) [FLAC (tracks+.сue), lossless]
  • (2012) For Today / Immortal (Metalcore, Hardcore, Christian) [FLAC (tracks+ ...
  • Информация
    Посетители, находящиеся в группе Гости, не могут оставлять комментарии к данной публикации.