вход на сайт

Имя пользователя :
Пароль :

Восстановление пароля Регистрация
(2012, Сборник) VA / Walt Disney Records Presents: Love Hits (Pop, Soundtrack) [FLAC (tracks+.cue), lossless]
Рейтинг:
(голосов: 1)



[img]{THEME}/images/logopost.png[/img]




Сборник
Исполнитель:Various Artists
Название сборника:Walt Disney Records Presents: Love Hits
Год выпуска:1998
Жанр:Pop, Soundtrack
Страна (Издатель, Каталожный номер): EU(Walt Disney Records/Sony Music, 5099749253599)
Аудиокодек: FLAC (*.flac)
Тип рипа: tracks+.cue
Битрейт: lossless
Лог файлы: присутствуют
Наличие сканов в содержимом раздачи: Есть
Продолжительность: 01:15:38



Tреклист:
01. Elton John - Can You Feel The Love Tonight (4:02)
02. Vanessa Williams - Colors Of The Wind (4:19)
03. Michael Bolton - Go The Distance (4:43)
04. Regina Belle and Peabo Bryson - A Whole New World (4:07)
05. Boyzone - Shooting Star (4:14)
06. Peter Andre - Kiss The Girl (2:55)
07. Eternal - When You Wish Upon A Star (2:49)
08. Alan Menken - God Bless Us Everyone (3:36)
09. Jennifer Warnes - Cold Enough To Snow (2:43)
10. CoCo Lee - Reflections (3:35)
11. All 4 One - Someday (4:20)
12. Shanice and Jon Secada - If I Never Knew You (4:13)
13. Randy Newman and Lyle Lovett - Youve Got A Friend In Me (2:42)
14. Alan Menken and Lori Beecham - A Place Called Home (3:30)
15. Elton John - I Just Cant Wait To Be King (3:37)
16. Belinda Carlisle - I Wont Say (Im In Love) (3:18)
17. 98 Degree and Stevie Wonder - True To Your Heart (4:17)
18. Elton John - Circle Of Life (4:52)
19. Celine Dion and Peabo Bryson - Beauty And The Beast (4:05)
20. Brian McKnight - Remember The Magic (Bonus Track) (3:41)


Лог создания рипа ▼Text
Exact Audio Copy V0.99 prebeta 5 from 4. May 2009

EAC extraction logfile from 16. May 2010, 19:28

Various Artists 2 / Love Hits

Used drive : ASUS DRW-1814BL Adapter: 0 ID: 1

Read mode : Secure
Utilize accurate stream : Yes
Defeat audio cache : Yes
Make use of C2 pointers : No

Read offset correction : 6
Overread into Lead-In and Lead-Out : No
Fill up missing offset samples with silence : Yes
Delete leading and trailing silent blocks : No
Null samples used in CRC calculations : Yes
Used interface : Native Win32 interface for Win NT & 2000
Gap handling : Appended to previous track

Used output format : User Defined Encoder
Selected bitrate : 768 kBit/s
Quality : High
Add ID3 tag : No
Command line compressor : C:Program FilesExact Audio CopyFLACFLAC.EXE
Additional command line options : -6 -V -T "ARTIST=%a" -T "TITLE=%t" -T "ALBUM=%g" -T "DATE=%y" -T "TRACKNUMBER=%n" -T "GENRE=%m" -T "COMMENT=%e" %s -o %d


TOC of the extracted CD

Track | Start | Length | Start sector | End sector
---------------------------------------------------------
1 | 0:00.00 | 4:02.10 | 0 | 18159
2 | 4:02.10 | 4:18.57 | 18160 | 37566
3 | 8:20.67 | 4:43.05 | 37567 | 58796
672ca34936c8e2bae3ff12e2122d34977efd6824(2012, Сборник) VA / Walt Disney Records Presents: Love Hits (Pop, Soundtrack) [FLAC (tracks+.cue), lossless] (2012, Сборник) VA / Walt Disney Records Presents: Love Hits (Pop, Soundtrack) [FLAC (tracks+.cue), lossless] " />

Аплоадер: Админ, дата: 11-08-2012, 21:46, торрент скачан: 359 раз

Понравилась раздача? Посмотрите эти:
  • (1985, Сборник) VA / The Breakfast Club Original Motion Picture Soundtrack ...
  • (2010) Clean Tears / Innerve (Techno, Vocaloid) [FLAC (tracks+.cue), lossle ...
  • (2010) Zaz / Zaz (Nu jazz, Chanson, Soul) [FLAC (tracks+.cue), lossless]
  • (2011) Виктория - победительница / Victorious (OST) [FLAC (tracks+.cue), lo ...
  • (2011) B.B. King / Icon (Blues) [FLAC (tracks+.cue), lossless]
  • (2012) Paul Van Dyk / Evolution (Progressive House, Trance) [FLAC (tracks+. ...
  • (2012, Сборник) VA / The Best Of Lounge 4 (Lounge, Chillout, Jazzy, Downtem ...
  • (2012, Сборник) VA / Saxophone Golden Best (Jazz, Smooth Jazz) [FLAC (track ...
  • (2008, Сборник) VA / Relax Piano - Yesterday - Trai Tim Mua Thu - Vol.7 (Ne ...
  • (2012) Tomandandy / Resident Evil: Retribution (Score, Soundtrack)[FLAC (tr ...
  • (2012) Sally Night / Love For Sale (Vocal Jazz) [FLAC (tracks+.cue), lossle ...
  • (2012, Сборник) VA / Now Thats What I Call Music! 83 (2 CD) (Pop, Dance) [F ...
  • (2008-2012, Сборник) VA / The Twilight Saga (5 CD) (Soundtrack) [FLAC (trac ...
  • (2012, Сборник) VA / Woman Trance Voices vol. 7 (4 CD) (Vocal, Progressive ...
  • (2012) Alicia Keys / Girl On Fire (R&B) [FLAC (tracks+.cue), lossless]
  • (2012) Netsky / 2 (Drum & Bass, Dubstep) [FLAC (tracks+.cue), lossless]
  • (2011) Scorpions / Comeblack (Hard Rock) [FLAC (tracks+.cue)lossless]
  • (2011) Ленинград / Хна (Rock) [FLAC (tracks+.cue), lossless]
  • (2011) Downhere / On The Altar Of Love (Alternative Rock/Christian Rock) [F ...
  • (2011) Phinehas / Thegodmachine (Metalcore) [FLAC (tracks+.cue), lossless]
  • Информация
    Посетители, находящиеся в группе Гости, не могут оставлять комментарии к данной публикации.