вход на сайт

Имя пользователя :
Пароль :

Восстановление пароля Регистрация
(2012) Hans Zimmer / The Dark Knight Rises (Film score) [FLAC (tracks+.cue), lossless]
Рейтинг:
(голосов: 1)



[img]{THEME}/images/logopost.png[/img]



Исполнитель: Hans Zimmer
Страна: США
Альбом: The Dark Knight Rises
Тип альбома: Soundtrack
Год выпуска: 2012
Жанр:Film score
Аудиокодек: FLAC (*.flac)
Тип рипа: tracks+.cue
Битрейт: lossless
Продолжительность: 00:51:24

Tреклист:
01. A Storm Is Coming (0:37)
02. On Thin Ice (2:55)
03. Gothams Reckoning (4:08)
04. Mind If I Cut In? (3:27)
05. Underground Army (3:12)
06. Born In Darkness (1:57)
07. The Fire Rises (5:33)
08. Nothing Out There (2:51)
09. Despair (3:14)
10. Fear Will Find You (3:08)
11. Why Do We Fall? (2:03)
12. Death By Exile (0:23)
13. Imagine The Fire (7:25)
14. Necessary Evil (3:16)
15. Rise (7:11)

Лог создания рипа ▼TextX Lossless Decoder version 20120609 (141.0)

XLD extraction logfile from 2012-07-17 13:16:15 -0500

Hans Zimmer / The Dark Knight Rises

Used drive : OPTIARC DVD RW AD-7170A (revision 1.N8)

Ripper mode : XLD Secure Ripper
Disable audio cache : OK for the drive with a cache less than 1375KiB
Make use of C2 pointers : NO
Read offset correction : 48
Max retry count : 20
Gap status : Analyzed, Appended (except HTOA)

TOC of the extracted CD
Track | Start | Length | Start sector | End sector
---------------------------------------------------------
1 | 00:00:00 | 00:36:69 | 0 | 2768
2 | 00:36:69 | 02:54:39 | 2769 | 15857
3 | 03:31:33 | 04:07:41 | 15858 | 34423
4 | 07:38:74 | 03:27:25 | 34424 | 49973
5 | 11:06:24 | 03:11:66 | 49974 | 64364
6 | 14:18:15 | 01:56:52 | 64365 | 73116
7 | 16:14:67 | 05:33:12 | 73117 | 98103
8 | 21:48:04 | 02:51:01 | 98104 | 110929
9 | 24:39:05 | 03:14:20 | 110930 | 125499
10 | 27:53:25 | 03:08:10 | 125500 | 139609
11 | 31:01:35 | 02:02:66 | 139610 | 148825
12 | 33:04:26 | 00:23:18 | 148826 | 150568
13 | 33:27:44 | 07:25:14 | 150569 | 183957
14 | 40:52:58 | 03:16:20 | 183958 | 198677
15 | 44:09:03 | 07:15:66 | 198678 | 231368

AccurateRip Summary
Disc not found in AccurateRip DB.

All Tracks
Album gain : -5.81 dB
Peak : 0.992889
Statistics
Read error : 0
Jitter error (maybe fixed) : 0
Retry sector count : 0
Damaged sector count
f404b1b599e11dad8a47d4fc813dc22185a2f3a0(2012) Hans Zimmer / The Dark Knight Rises (Film score) [FLAC (tracks+.cue), lossless] (2012) Hans Zimmer / The Dark Knight Rises (Film score) [FLAC (tracks+.cue), lossless] " />

Аплоадер: Админ, дата: 20-07-2012, 13:57, торрент скачан: 359 раз

Понравилась раздача? Посмотрите эти:
  • (2013) Hans Zimmer / Человек из стали / Man Of Steel [Deluxe Edition] (2 CD ...
  • (2013) Kanye West | Yeezus (Rap|Experimental Hip-Hop) [FLAC (tracks+.cue), ...
  • (2012) The Lumineers / The Lumineers (Indie-folk, Folk-rock) [FLAC (tracks+ ...
  • (2013) by M83, Anthony Gonzalez & Joseph Trapanese / Обливион / Oblivion (S ...
  • (2013) Paramore / Paramore (Japan Edition) (Alternative Rock) [FLAC (tracks ...
  • (2013) Bullet For My Valentine / Temper Temper (Japanese Deluxe Edition) (M ...
  • (2012) Владимир Кузьмин / Endorfin (Русский Рок) [FLAC (image+.cue), lossle ...
  • (2012) Hans Zimmer / The Dark Knight Rises (Original Motion Picture Soundtr ...
  • (2005-2012 Сборник) VA | Batman Trilogy (Бэтмен. Трилогия) (OST) | [MP3, 32 ...
  • (2010) Начало / Inception (by Hans Zimmer) (Score) [FLAC (tracks+.cue) loss ...
  • (2011) Moby / Destroyed (Electronic, Downtempo, Ambient) [FLAC (tracks+.cue ...
  • (2010) Sungha Jung / Perfect Blue (Acoustic, Fingerstyle Guitar) [FLAC (tra ...
  • (2011) Sungha Jung / Irony (Acoustic guitar, Fingerstyle) [FLAC (tracks+.cu ...
  • (2012) Bruce Springsteen / Wrecking Ball (Folk Rock) [FLAC (tracks+.cue),l ...
  • (2012) Norah Jones / Little Broken Hearts (Vocal Jazz, Alternative Rock) [F ...
  • (2009) Paul Cardall / Sacred Piano (New Age) [FLAC (tracks+.cue), lossless] ...
  • (2012) Mouse On Mars / Parastrophics (Leftfield, Abstract, Rhythmic Noise, ...
  • (2012) Linkin Park / LP Underground 12 (Alternative Rock) [FLAC (tracks+.cu ...
  • (2010) Enduser / 1-3 (DnB, Dubstep, Breakcore) [FLAC (tracks+.cue), lossles ...
  • (2012) Lana Del Rey / Born To Die (Indie Pop) [FLAC (tracks+.cue), lossless ...
  • (2012) The Fray / Scars & Stories (Alternative/Rock/Piano Rock) [FLAC (trac ...
  • (2012) Unheilig / Lichter der Stadt (Limited Edition, 2CD) (Industrial, Got ...
  • (2012) Young Guns / Bones (Alternative Rock) [FLAC (tracks +.cue), lossless ...
  • (2012) Switchfoot / Vice Re-Verses (Remixes) (Alternative, Christian Rock, ...
  • (2011) 7eventh Time Down / Alive In You (Alternative Rock/Modern Rock/Chris ...
  • Информация
    Посетители, находящиеся в группе Гости, не могут оставлять комментарии к данной публикации.