вход на сайт

Имя пользователя :
Пароль :

Восстановление пароля Регистрация
(2012) Patrick Doyle / Храбрая сердцем / Brave (Score) [FLAC (tracks+.cue), lossless]
Рейтинг:
(голосов: 1)



[img]{THEME}/images/logopost.png[/img]




Исполнитель:Patrick Doyle
Страна: США
Альбом:Храбрая сердцем / Brave
Год выпуска:2012
Жанр:Score
Аудиокодек: FLAC (*.flac)
Тип рипа: tracks+.cue
Битрейт: lossless
Продолжительность: 01:05:31



Wikipedia|Amazon

Tреклист:
01. Julie Fowlis - Touch The Sky (2:31)
02. Julie Fowlis - Into The Open Air (2:42)
03. Birdy With Mumford & Sons - Learn Me Right (3:46)
04. Patrick Doyle - Fate & Destiny (4:17)
05. Patrick Doyle - The Games (1:53)
06. Patrick Doyle - I Am Merida (2:23)
07. Patrick Doyle - Remember To Smile (2:17)
08. Patrick Doyle - Merida Rides Away (4:08)
09. Patrick Doyle - The Witchs Cottage (4:26)
10. Billy Connolly & Cast Of Brave - Song Of MorDu (2:18)
11. Patrick Doyle - Through The Castle (4:35)
12. Patrick Doyle - Legends Are Lessons (4:07)
13. Patrick Doyle - Show Us The Way (3:47)
14. Patrick Doyle - Mum Goes Wild (3:26)
15. Patrick Doyle - In Her Heart (2:37)
16. Emma Thompson & Peigi Barker - Noble Maiden Fair (A Mhaighdean Bhan Uasal) (2:36)
17. Patrick Doyle - Not Now! (3:35)
18. Patrick Doyle - Get The Key (3:15)
19. Patrick Doyle - Weve Both Changed (5:30)
20. Patrick Doyle - Meridas Home (1:32)


Лог создания рипа ▼TextExact Audio Copy V1.0 beta 3 from 29. August 2011

EAC extraction logfile from 22. June 2012, 16:50

Various Artists / Brave

Used drive : PLDS DVD+-RW DS-8A5SH Adapter: 1 ID: 0

Read mode : Secure
Utilize accurate stream : Yes
Defeat audio cache : Yes
Make use of C2 pointers : No

Read offset correction : 6
Overread into Lead-In and Lead-Out : No
Fill up missing offset samples with silence : Yes
Delete leading and trailing silent blocks : No
Null samples used in CRC calculations : Yes
Used interface : Native Win32 interface for Win NT & 2000
Gap handling : Appended to previous track

Used output format : User Defined Encoder
Selected bitrate : 32 kBit/s
Quality : High
Add ID3 tag : No
Command line compressor : C:Program Files (x86)FLACflac.exe
Additional command line options : -T "artist=%artist%" -T "title=%title%" -T "album=%albumtitle%" -T "date=%year%" -T "tracknumber=%tracknr%" -T "genre=%genre%" -8 --verify %source%


TOC of the extracted CD

Track | Start | Length | Start sector | End sector
---------------------------------------------------------
1 | 0:00.00 | 2:31.30 | 0 | 11354
2 | 2:31.30 | 2:41.70 | 11355 | 23499
3 | 5:13.25 | 3:45.74 | 23500 | 40448
4 | 8:59.24 | 4:17.20 | 40449 | 59743
5 | 13:16.44 | 1:53.20 | 59744 | 68
8a51c7d37c14f64c083a6a5a035831d028cfde01(2012) Patrick Doyle / Храбрая сердцем / Brave (Score) [FLAC (tracks+.cue), lossless] (2012) Patrick Doyle / Храбрая сердцем / Brave (Score) [FLAC (tracks+.cue), lossless] " />

Аплоадер: Админ, дата: 5-07-2012, 20:13, торрент скачан: 359 раз

Понравилась раздача? Посмотрите эти:
  • (2013) Ramin Djawadi / Game of Thrones: Season 3 (OST) [FLAC (tracks+.cue), ...
  • (2013) Hans Zimmer / Человек из стали / Man Of Steel [Deluxe Edition] (2 CD ...
  • (2010) Zaz / Zaz (Nu jazz, Chanson, Soul) [FLAC (tracks+.cue), lossless]
  • (2012) Katie Melua / Secret Symphony (Jazz Pop, Vocal Jazz) [FLAC (tracks+. ...
  • (2011) B.B. King / Icon (Blues) [FLAC (tracks+.cue), lossless]
  • (2012) Yiruma / Stay In Memory (New Age, Instrumental, Neoclassical, Piano) ...
  • (2012) Marconi Union / Different Colours (Post Rock, Downtempo, Ambient) [F ...
  • (2012, Сборник) VA / Saxophone Golden Best (Jazz, Smooth Jazz) [FLAC (track ...
  • (2008, Сборник) VA / Relax Piano - Yesterday - Trai Tim Mua Thu - Vol.7 (Ne ...
  • (2012) Tomandandy / Resident Evil: Retribution (Score, Soundtrack)[FLAC (tr ...
  • (2012) Usher / Looking 4 Myself (Deluxe Version) (R&B, Soul) [FLAC (tracks+ ...
  • (2011) Дельфин / Существо (Alternative|Experimental) [FLAC (tracks+.cue), l ...
  • (2012) Buckethead / Electric Sea (Experimental/Acoustic/Ambient/Rock) [FLAC ...
  • (2012) Les Friction / Les Friction (Alt. Rock/Neo-Classical/Orchestral) [FL ...
  • (2011) SeeS / The enD (Progressive/Math Metal) [FLAC (tracks+.cue), lossles ...
  • (2012) Our Lady Peace / Curve (Alternative/Rock) [FLAC (tracks+.cue), lossl ...
  • (2012) KoRn feat. Skrillex / Chaos Lives In Everything (UK Promo) (Nu-metal ...
  • (2012) Nine Lashes / World We View (Alt.Rock/Alt.Metal/Christian) [FLAC (tr ...
  • (2011) Phinehas / Thegodmachine (Metalcore) [FLAC (tracks+.cue), lossless]
  • (2012) For Today / Immortal (Metalcore, Hardcore, Christian) [FLAC (tracks+ ...
  • Информация
    Посетители, находящиеся в группе Гости, не могут оставлять комментарии к данной публикации.