вход на сайт

Имя пользователя :
Пароль :

Восстановление пароля Регистрация
(2011) Виктория - победительница / Victorious (OST) [FLAC (tracks+.cue), lossless]
Рейтинг:
(голосов: 1)



[img]{THEME}/images/logopost.png[/img]



Исполнитель: VA
Альбом: Victorious
Страна: USA
Тип альбома: Студийный
Год выпуска: 2011
Жанр: OST
Формат: FLAC (tracks+.cue)
Битрейт: lossless
Продолжительность: 00:36:58

Tреклист:
01. Make It Shine (Victorious Theme) (3:08)
02. Freak The Freak Out (3:54)
03. Best Friends Brother (3:38)
04. Beggin On Your Knees (3:14)
05. All I Want Is Everything (3:02)
06. Youre The Reason (2:54)
07. Give It Up (2:45)
08. I Want You Back (3:00)
09. Song 2 You (3:38)
10. Tell Me That You Love Me (2:41)
11. Finally Falling (2:50)
12. Leave It All To Shine (2:13)

Лог создания рипа ▼TextExact Audio Copy V1.0 beta 1 from 15. November 2010

EAC extraction logfile from 3. August 2011, 19:13

Various / Victorious: Music From The Hit TV Show

Used drive : Optiarc DVD RW AD-7260S Adapter: 3 ID: 0

Read mode : Secure
Utilize accurate stream : Yes
Defeat audio cache : Yes
Make use of C2 pointers : No

Read offset correction : 48
Overread into Lead-In and Lead-Out : No
Fill up missing offset samples with silence : Yes
Delete leading and trailing silent blocks : No
Null samples used in CRC calculations : Yes
Used interface : Native Win32 interface for Win NT & 2000
Gap handling : Appended to previous track

Used output format : User Defined Encoder
Selected bitrate : 768 kBit/s
Quality : High
Add ID3 tag : No
Command line compressor : C:Program Files (x86)Exact Audio CopyFLACFLAC.EXE
Additional command line options : -V -8 -T "artist=%a" -T "title=%t" -T "album=%g" -T "date=%y" -T "tracknumber=%n" -T "genre=%m" %s


TOC of the extracted CD

Track | Start | Length | Start sector | End sector
---------------------------------------------------------
1 | 0:00.00 | 3:07.58 | 0 | 14082
2 | 3:07.58 | 3:54.36 | 14083 | 31668
3 | 7:02.19 | 3:38.20 | 31669 | 48038
4 | 10:40.39 | 3:13.41 | 48039 | 62554
5 | 13:54.05 | 3:02.18 | 62555 | 76222
6 | 16:56.23 | 2:53.43 | 76223 | 89240
7 | 19:49.66 | 2:45.11 | 89241 | 101626
8 | 22:35.02 | 2:59.69 | 101627 | 115120
9 | 25:34.71 | 3:38.28 | 115121 | 131498
10 | 29:13.24 | 2:41.26 | 131499 | 143599
&
2b31231e265be876eff8bef1a181f5e2e85d7403(2011) Виктория - победительница / Victorious (OST) [FLAC (tracks+.cue), lossless] (2011) Виктория - победительница / Victorious (OST) [FLAC (tracks+.cue), lossless] " />

Аплоадер: Админ, дата: 1-03-2012, 15:09, торрент скачан: 359 раз

Понравилась раздача? Посмотрите эти:
  • (2010) Zaz / Zaz (Nu jazz, Chanson, Soul) [FLAC (tracks+.cue), lossless]
  • (2011) Adele / 21 (Jazz, Lounge, Easy Listening) [FLAC (tracks + .cue), los ...
  • (2011) Daughtry / Break the Spell (Deluxe Edition) (Alt. Rock / Modern Rock ...
  • (2011) B.B. King / Icon (Blues) [FLAC (tracks+.cue), lossless]
  • (2012) Son Of A Bad Man / Heres To The Falling In... (Alt.Rock) [FLAC (trac ...
  • (2012) Yiruma / Stay In Memory (New Age, Instrumental, Neoclassical, Piano) ...
  • (2012, Сборник) VA / Saxophone Golden Best (Jazz, Smooth Jazz) [FLAC (track ...
  • (2012) Tomandandy / Resident Evil: Retribution (Score, Soundtrack)[FLAC (tr ...
  • (2011) Ляпис Трубецкой / Веселые картинки (Rock) [FLAC (tracks+.cue), lossl ...
  • (2011) Scorpions / Comeblack (Hard Rock) [FLAC (tracks+.cue)lossless]
  • (2011) Дельфин / Существо (Alternative|Experimental) [FLAC (tracks+.cue), l ...
  • (2011) Ленинград / Хна (Rock) [FLAC (tracks+.cue), lossless]
  • (2011) SeeS / The enD (Progressive/Math Metal) [FLAC (tracks+.cue), lossles ...
  • (2011) Downhere / On The Altar Of Love (Alternative Rock/Christian Rock) [F ...
  • (2012) Our Lady Peace / Curve (Alternative/Rock) [FLAC (tracks+.cue), lossl ...
  • (2011) The Browning / Burn This World (Deathcore/Electronic) [FLAC (tracks+ ...
  • (2012) Nine Lashes / World We View (Alt.Rock/Alt.Metal/Christian) [FLAC (tr ...
  • (2011) Phinehas / Thegodmachine (Metalcore) [FLAC (tracks+.cue), lossless]
  • (2011) Ink Stained Promises / Relations. (Metalcore, Hardcore) [FLAC (track ...
  • (2011) Skindred / Union Black (Alternative Metal, Ragga-Metal) [FLAC (track ...
  • Информация
    Посетители, находящиеся в группе Гости, не могут оставлять комментарии к данной публикации.