вход на сайт

Имя пользователя :
Пароль :

Восстановление пароля Регистрация
(2010 , OST) Пипец / Kick Ass (OST) [FLAC (tracks+.cue) lossless]
Рейтинг:
(голосов: 1)



[img]{THEME}/images/logopost.png[/img]



Альбом: Пипец / Kick Ass
Тип альбома: Soundtacks
Год выпуска: 2010
Жанр: Soundtrack
Формат: FLAC(tracks+.cue)
Битрейт: lossless
Продолжительность: 00:51:22
Tреклист:
1. Stand Up - The Prodigy
2. Kick Ass - MIKA Vs RedOne
3. Cant Go Back - Primal Scream
4. Theres a Pot a Brewin - The Little Ones
5. Omen - The Prodigy
6. Make Me Wanna Die - The Pretty Reckless
7. Banana Splits - The Dickies
8. Starry Eyed - Ellie Goulding
9. This Town Aint Big Enough For The Both Of Us - Sparks
10. Were All In Love - The New York Dolls
11. Bongo Song - Zongamin
12. Per Qualche Dollaro In Piu (For A Few Dollars More) - Ennio Morricone
13. Bad Reputation - The Hit Girls
14. An American Trilogy - Elvis Presley
"Отчеты ЕАС" ▼EAC extraction logfile from 30. March 2010, 21:02 for CD
Various / Kick-Ass: Music From The Motion Picture

Used drive: TSSTcorpCDDVDW SH-S203D Adapter: 1ID: 0
Read mode : Secure with NO C2, accurate stream, disable cache
Read offset correction : 6
Overread into Lead-In and Lead-Out : No

Used output format : C:Program Files (x86)Exact Audio Copyflac.exe (User Defined Encoder)
192 kBit/s
Additional command line options : -V -5 -T "artist=%a" -T "title=%t" -T "album=%g" -T "date=%y" -T "tracknumber=%n" -T "genre=%m" %s

Other options:
Fill up missing offset samples with silence : Yes
Delete leading and trailing silent blocks : No
Native Win32 interface for Win NT & 2000


Track1
Filename M:OSTsKick-AssFLAC1 - The Prodigy - Stand Up.wav

Pre-gap length0:00:02.00

Peak level 92.1 %
Track quality 100.0 %
Test CRC 3BF2F661
Copy CRC 3BF2F661
Copy OK

Track2
Filename M:OSTsKick-AssFLAC2 - Mika vs Redone - Kick Ass.wav

Peak level 100.0 %
Track quality 100.0 %
Test CRC F8BA43D3
Copy CRC F8BA43D3
Copy OK

Track3
Filename M:OSTsKick-AssFLAC3 - Primal Scream - Cant Go Back.wav

Peak level 81.5 %
Track quality 100.0 %
Test CRC 9D6BF103
Copy CRC 9D6BF103
Copy OK

Track4
Filename M:OSTsKick-AssFLAC4 - The Little Ones - Theres A Pot Brewin.wav

Peak level 94.1 %
Track quality 100.0 %
Test CRC ECD9BAB5
Copy CRC ECD9BAB5
Copy OK

Track5
Filename M:OSTsKick-AssFLAC5 - The Prodigy - Omen.wav

Peak level 81.7 %
Track quality 100.0 %
Test CRC 99BC9C8C
Copy CRC 99BC9C8C
Copy OK

Track6
Filename M:OSTsKick-AssFLAC6 - The Pretty Reckless - Make Me Wanna Die.wav

Peak level 69.5 %
Track quality 100.0 %
Test CRC 020E2D2F
Copy CRC 020E2D2F
Copy OK

Track7
 
495fbb3f65f5de93c83e0cb602a5e14148b29430(2010 , OST) Пипец / Kick Ass (OST) [FLAC (tracks+.cue) lossless] (2010 , OST) Пипец / Kick Ass (OST) [FLAC (tracks+.cue) lossless] " />

Аплоадер: Админ, дата: 27-06-2010, 14:41, торрент скачан: 359 раз

Понравилась раздача? Посмотрите эти:
  • (2012, Сборник) VA / Вечерняя Коллекция (Звуки природы) (Relax) [FLAC (trac ...
  • (Jazz) Ray Charles — The Very Best Of Ray Charles - 2000, FLAC (tracks), lo ...
  • (OMPS) Эннио Морриконе / Ennio Morricone — Once upon a time in America (Од ...
  • (Soundtrack,1999) Fight Club / Бойцовский клуб - The Dust Brothers [FLAC (t ...
  • (1999) Red Hot Chili Peppers - Californication (Alternative rock, Funk) [FL ...
  • (Soundtrack,2007) The Orange Box - (Half-Life 2, Portal, Team Fortress 2) [ ...
  • (Дискография, 2000-2007) SUM 41 (Punk-Rock/Pop-Punk) [FLAC (tracks + .cue), ...
  • (Дискография) 1981-2009 Depeche Mode (Electronic, Synthpop) [FLAC (tracks+ ...
  • (2009) The Black Eyed Peas / The E.N.D. (The Energy Never Dies) (Target Del ...
  • (2001) GORILLAZ / Gorillaz (US Edition) (Hip-Hop) [FLAC (image+cue), lossle ...
  • (2008) Karunesh /Enlightenment (New Age) [FLAC (image+.cue), lossless]
  • (2011) Orjan Nilsen / In My Opinion (Trance) [FLAC (tracks+.cue), lossless] ...
  • (1988) David Grisman Quintet feat. Svend Asmussen / Svingin With Svend (Jaz ...
  • (Дискография, 1995-2006) Adiemus (Instrumental, Folk, Vocal, New Age) [FLAC ...
  • (2009) Timbaland / Shock Value II (Hip-Hop / RnB) [FLAC (tracks+.cue), loss ...
  • (2004-2006) Amy Winehouse (Rhythm & Blues/Neo-Soul, Ska, Jazz Pop) [FLAC(t ...
  • (2012) High Contrast / The Agony & The Ecstasy (Drum and Bass) [FLAC (track ...
  • (2008) Miley Cyrus - Breakout (Platinum Edition) (Pop) [FLAC (tracks+.cue), ...
  • (2009) Miley Cyrus / The Time of Our Lives (Pop) [FLAC (tracks+.cue), lossl ...
  • (2010) [AMATORY] / Инстинкт обречённых (Nu Metal) [FLAC (tracks), lossless] ...
  • (2011) Linkin Park / Iridescent (Alternative Rock) [FLAC(image+.cue), lossl ...
  • (1999) Necrophagist / Onset Of Putrefaction (Technical Death Metal) [FLAC ( ...
  • (2011) This Will Destroy You / Tunnel Blanket (Post Rock) [FLAC (tracks+.cu ...
  • (2004) Дельфин / Запись концерта 19.11.04 (Alternative|Experimental) [FLAC ...
  • (Дискография, 2002 - 2012) Rodrigo y Gabriela (Acoustic, Flamenco, Classica ...
  • Информация
    Посетители, находящиеся в группе Гости, не могут оставлять комментарии к данной публикации.