вход на сайт

Имя пользователя :
Пароль :

Восстановление пароля Регистрация
(Soundtrack,2007) The Orange Box - (Half-Life 2, Portal, Team Fortress 2) [FLAC (tracks+.cue), lossless]
Рейтинг:
(голосов: 1)



[img]{THEME}/images/logopost.png[/img]



Исполнитель: Jonathan Coulton, Ellen McLain, Mike Morasky, Kelly Bailey
Альбом: The Orange Box
Год выпуска: 2007
Жанр: OST
Формат: FLAC
Битрейт: lossless
Продолжительность: 00:46:56

Tрэклист:
▼1 Portal: Still Alive
2 Team Fortress 2: Team Fortress 2
3 Team Fortress 2: Playing With Danger
4 Team Fortress 2: Rocket Jump Waltz
5 Half Life 2: Episode One: Disrupted Original
6 Half Life 2: Episode One: Abandoned in Place
7 Half Life 2: Episode One: Combine Advisory
8 Half Life 2: Episode Two: Last Legs
9 Half Life 2: Episode One: Guard Down
10 Half Life 2: Episode Two: Sector Sweep
11 Half Life 2: Episode Two: Dark Interval
12 Half Life 2: Episode Two: Vortal Combat
13 Portal: Subject Name Here
14 Portal: Self Esteem Fund
15 Portal: 4000 Degrees Kelvin
16 Portal: Stop What You Are Doing
17 Portal: Youre Not a Good Person
18 Portal: You Cant Escape, You Know
19 Still Alive (J.C version)

Log EAC
▼EAC extraction logfile from 2. January 2008, 22:25 for CD
Various / The Orange Box Original Soundtrack
Used drive: HL-DT-STDVD+-RW GWA4164B Adapter: 0ID: 1
Read mode : Secure with NO C2, accurate stream, NO disable cache
Read offset correction : 102
Overread into Lead-In and Lead-Out : No
Used output format : C:Program FilesExact Audio Copybinflac.exe (User Defined Encoder)
320 kBit/s
Additional command line options : -8 -A tukey(0.25) -A gauss(0.1875) -b 4096 -V -T "artist=%a" -T "title=%t" -T "album=%g" -T "date=%y" -T "tracknumber=%n" -T "genre=%m" %s --sector-align
Other options:
Fill up missing offset samples with silence : Yes
Delete leading and trailing silent blocks : No
Installed external ASPI interface
Track1
Filename J:TorrentsThe Orange Box Original Soundtrack�1 Still Alive.wav
Pre-gap length0:00:02.00
Peak level 98.8 %
Track quality 100.0 %
Test CRC 69A72847
Copy CRC 69A72847
Copy OK
Track2
Filename J:TorrentsThe Orange Box Original Soundtrack�2 Team Fortress 2.wav
Pre-gap length0:00:00.66
Peak level 98.8 %
Track quality 100.0 %
Test CRC 9E4DFCF7
Copy CRC 9E4DFCF7
Copy OK
Track3
Filename J:TorrentsThe Orange Box Original Soundtrack�3 Playing With Danger.wav
Pre-gap length0:00:00.68
Peak level 98.8 %
Track quality 100.0 %
Test CRC EB328D4F
Copy CRC EB328D4F
Copy OK
Track4
Filename J:TorrentsThe Orange Box Original Soundtrack�4 Rocket Jump Waltz.wav
Pre-gap length0:00:00.68
Peak level 98.8 %
Track quality 99.7 %
Test CRC 8BC6247B
1b6f0e708a6f2fa822e020aa2cef3c12e7860d22(Soundtrack,2007) The Orange Box - (Half-Life 2, Portal, Team Fortress 2) [FLAC (tracks+.cue), lossless] (Soundtrack,2007) The Orange Box - (Half-Life 2, Portal, Team Fortress 2) [FLAC (tracks+.cue), lossless] " />

Аплоадер: Админ, дата: 1-06-2009, 15:18, торрент скачан: 359 раз

Понравилась раздача? Посмотрите эти:
  • (2012, Сборник) VA / Вечерняя Коллекция (Звуки природы) (Relax) [FLAC (trac ...
  • (Jazz) Ray Charles — The Very Best Of Ray Charles - 2000, FLAC (tracks), lo ...
  • (Soundtrack,1999) Fight Club / Бойцовский клуб - The Dust Brothers [FLAC (t ...
  • (1999) Red Hot Chili Peppers - Californication (Alternative rock, Funk) [FL ...
  • (Дискография, 2000-2007) SUM 41 (Punk-Rock/Pop-Punk) [FLAC (tracks + .cue), ...
  • (Дискография) 1981-2009 Depeche Mode (Electronic, Synthpop) [FLAC (tracks+ ...
  • (2009) The Black Eyed Peas / The E.N.D. (The Energy Never Dies) (Target Del ...
  • (2001) GORILLAZ / Gorillaz (US Edition) (Hip-Hop) [FLAC (image+cue), lossle ...
  • (2010 , OST) Пипец / Kick Ass (OST) [FLAC (tracks+.cue) lossless]
  • (2008) Karunesh /Enlightenment (New Age) [FLAC (image+.cue), lossless]
  • (1988) David Grisman Quintet feat. Svend Asmussen / Svingin With Svend (Jaz ...
  • (2004-2006) Amy Winehouse (Rhythm & Blues/Neo-Soul, Ska, Jazz Pop) [FLAC(t ...
  • (2008) Miley Cyrus - Breakout (Platinum Edition) (Pop) [FLAC (tracks+.cue), ...
  • (2009) Miley Cyrus / The Time of Our Lives (Pop) [FLAC (tracks+.cue), lossl ...
  • (2010) [AMATORY] / Инстинкт обречённых (Nu Metal) [FLAC (tracks), lossless] ...
  • (2011) Linkin Park / Iridescent (Alternative Rock) [FLAC(image+.cue), lossl ...
  • (1999) Necrophagist / Onset Of Putrefaction (Technical Death Metal) [FLAC ( ...
  • (2011) This Will Destroy You / Tunnel Blanket (Post Rock) [FLAC (tracks+.cu ...
  • (2004) Дельфин / Запись концерта 19.11.04 (Alternative|Experimental) [FLAC ...
  • (Дискография, 2002 - 2012) Rodrigo y Gabriela (Acoustic, Flamenco, Classica ...
  • Информация
    Посетители, находящиеся в группе Гости, не могут оставлять комментарии к данной публикации.