вход на сайт

Имя пользователя :
Пароль :

Восстановление пароля Регистрация
(Soundtrack,1999) Fight Club / Бойцовский клуб - The Dust Brothers [FLAC (tracks + .cue)lossless]
Рейтинг:
(голосов: 1)



[img]{THEME}/images/logopost.png[/img]



Исполнитель: The Dust Brothers
Альбом: Fight Club SCORE
Год выпуска: 27 Jul 1999
Жанр: SCORE
Формат: FLAC
Битрейт: lossless
Тип битрейта: CBR
Продолжительность: 63 мин

Tрэклист:
▼01. Who Is Tyler Durden? (5:03)
02. Homework (4:37)
03. What Is Fight Club? (4:43)
04. Single Serving Jack (4:14)
05. Corporate World (2:42)
06. Psycho Boy Jack (2:57)
07. Hessel, Raymond K. (2:49)
08. Medula Oblongata (5:59)
09. Jacks Smirking Revenge (3:58)
10. Stealing Fat (2:21)
11. Chemical Burn (3:35)
12. Marla (4:22)
13. Commissioner Castration (3:06)
14. Space Monkeys (3:24)
15. Finding The Bomb (6:45)
16. This Is Your Life(feat. Tyler Durden) (3:31)

Дополнительные треки,которые играли в фильме(FLAC):
▼01. Vas - Svarga
02. Tom Waits - Goin Out West
03. The Pixies - Where Is My Mind(конец-титры)
*треки вырезаны из "Offerings", "Bone Machine", "Death To The Pixies 1987-1991".

Log EAC
▼EAC extraction logfile from 2. June 2007, 21:59 for CD
The Dust Brothers / Fight Club Soundtrack

Used drive: TSSTcorpCD/DVDW SH-W162L Adapter: 4ID: 0
Read mode : Secure with NO C2, accurate stream, disable cache
Read offset correction : 6
Overread into Lead-In and Lead-Out : No

Used output format : C:Program FilesFLACflac.exe (User Defined Encoder)
320 kBit/s
Additional command line options : -V -8 -T "artist=%a" -T "title=%t" -T "album=%g" -T "date=%y" -T "tracknumber=%n" -T "genre=%m" %s

Other options:
Fill up missing offset samples with silence : Yes
Delete leading and trailing silent blocks : No
Native Win32 interface for Win NT & 2000


Track1
Filename F:LosslessHollyweirdThe Dust Brothers - Fight Club Soundtrack (1999) [FLAC]1 - Who Is Tyler Durden .wav

Pre-gap length0:00:02.00

Peak level 99.0 %
Track quality 99.9 %
Test CRC B13D3C55
Copy CRC B13D3C55
Copy OK

Track2
Filename F:LosslessHollyweirdThe Dust Brothers - Fight Club Soundtrack (1999) [FLAC]2 - Homework.wav

Peak level 99.2 %
Track quality 99.9 %
Test CRC AB04650C
Copy CRC AB04650C
Copy OK

Track3
Filename F:LosslessHollyweirdThe Dust Brothers - Fight Club Soundtrack (1999) [FLAC]3 - What Is Fight Club .wav

Peak level 99.1 %
Track quality 100.0 %
Test CRC 888ED973
Copy CRC 888ED973
Copy OK

Track4
Filename F:LosslessHollyweirdThe Dust Brothers - Fight Club Soundtrack (1999) [FLAC]4 - Single Serving Jack.wav

Peak level 99.1 %
Track quality 100.0 %
Test CRC 34432C99
Copy CRC 34432C99
Copy OK

Track5
Filename F:LosslessHollyweirdThe Dust Brothers - Fight Club Soundtrack (1999) [FLAC]5 - Corporate World.wav

Peak level 99.0 %
Track quality 100.0 %
Test CRC 880DAB46
Copy CRC 880DAB46
Copy OK

Track6
Filename
25f6951f315926e5b43c892299760651f5392196(Soundtrack,1999) Fight Club / Бойцовский клуб - The Dust Brothers [FLAC (tracks + .cue)lossless] (Soundtrack,1999) Fight Club / Бойцовский клуб - The Dust Brothers [FLAC (tracks + .cue)lossless] " />

Аплоадер: Админ, дата: 21-04-2009, 03:53, торрент скачан: 359 раз

Понравилась раздача? Посмотрите эти:
  • (2012, Сборник) VA / Вечерняя Коллекция (Звуки природы) (Relax) [FLAC (trac ...
  • (1999) Dust Brothers / Бойцовский клуб / Fight Club (Soundtrack / Special E ...
  • (Jazz) Ray Charles — The Very Best Of Ray Charles - 2000, FLAC (tracks), lo ...
  • (1999) Red Hot Chili Peppers - Californication (Alternative rock, Funk) [FL ...
  • (Soundtrack,2007) The Orange Box - (Half-Life 2, Portal, Team Fortress 2) [ ...
  • (Дискография, 2000-2007) SUM 41 (Punk-Rock/Pop-Punk) [FLAC (tracks + .cue), ...
  • (Дискография) 1981-2009 Depeche Mode (Electronic, Synthpop) [FLAC (tracks+ ...
  • (2001) GORILLAZ / Gorillaz (US Edition) (Hip-Hop) [FLAC (image+cue), lossle ...
  • (2010 , OST) Пипец / Kick Ass (OST) [FLAC (tracks+.cue) lossless]
  • (2008) Karunesh /Enlightenment (New Age) [FLAC (image+.cue), lossless]
  • (1988) David Grisman Quintet feat. Svend Asmussen / Svingin With Svend (Jaz ...
  • (2004-2006) Amy Winehouse (Rhythm & Blues/Neo-Soul, Ska, Jazz Pop) [FLAC(t ...
  • (2008) Miley Cyrus - Breakout (Platinum Edition) (Pop) [FLAC (tracks+.cue), ...
  • (2009) Miley Cyrus / The Time of Our Lives (Pop) [FLAC (tracks+.cue), lossl ...
  • (2010) [AMATORY] / Инстинкт обречённых (Nu Metal) [FLAC (tracks), lossless] ...
  • (2011) Linkin Park / Iridescent (Alternative Rock) [FLAC(image+.cue), lossl ...
  • (1999) Necrophagist / Onset Of Putrefaction (Technical Death Metal) [FLAC ( ...
  • (2011) This Will Destroy You / Tunnel Blanket (Post Rock) [FLAC (tracks+.cu ...
  • (2004) Дельфин / Запись концерта 19.11.04 (Alternative|Experimental) [FLAC ...
  • (Дискография, 2002 - 2012) Rodrigo y Gabriela (Acoustic, Flamenco, Classica ...
  • Информация
    Посетители, находящиеся в группе Гости, не могут оставлять комментарии к данной публикации.