вход на сайт

Имя пользователя :
Пароль :

Восстановление пароля Регистрация
(Soundtrack,1996) От Заката До Рассвета / From Dusk Till Dawn - [FLAC (tracks + .cue), lossless]
Рейтинг:
(голосов: 1)



[img]{THEME}/images/logopost.png[/img]



Исполнитель: VA
Альбом: From Dusk Till Dawn OST
Год выпуска: 1996
Жанр: OST
Формат: FLAC
Битрейт: lossless
Тип битрейта: CBR
Продолжительность: 00:48:47

Tрэклист:
▼1.Everybody Be Cool - George Clooney
2.Dark Night - The Blasters
3.Mexican Blackbird - ZZ Top
4.Texas Funeral - Jon Wayne
5.Foolish Heart - The Mavericks
6.Would You Do Me A Favor? - Julette Lewis & Tarantino
7.Dengue Woman Blues - Jimmie Vaughan
8.Torquay - The Leftovers
9.Shes Just Killing Me - ZZ Top
10.Chets Speech - Cheech Marin
11.Angy Cockroaches (Cucarachas Enojadas) - Tito & Tarantula
12.Mary Had A Little Lamb - Stevie Ray Vaughn
13.After Dark - Tito & Tarantula
14.Willie The Wimp (And His Cadillac Coffin) - Stevie Ray Vaughn & Double Trouble
15.Kill The Band - Tom Savini
16.Mexican Standoff - Graeme Revell
17.Sex Machine Attacks - Graeme Revell
18.Chets Second Speech - Cheech Marin

Log EAC:
▼Exact Audio Copy V0.99 prebeta 3 from 28. July 2007
EAC extraction logfile from 11. September 2007, 13:12
Soundtrack / From Dusk Till Dawn
Used drive : _NEC DVD_RW ND-4571A Adapter: 0 ID: 2
Read mode : Secure
Utilize accurate stream : Yes
Defeat audio cache : Yes
Make use of C2 pointers : No
Read offset correction : 48
Overread into Lead-In and Lead-Out : No
Fill up missing offset samples with silence : Yes
Delete leading and trailing silent blocks : No
Null samples used in CRC calculations : Yes
Used interface : Native Win32 interface for Win NT & 2000
Used output format : User Defined Encoder
Selected bitrate : 768 kBit/s
Quality : High
Add ID3 tag : No
TOC of the extracted CD
Track | Start | Length | Start sector | End sector
---------------------------------------------------------
1 | 0:00.00 | 0:04.45 | 0 | 344
2 | 0:04.45 | 3:48.32 | 345 | 17476
3 | 3:53.02 | 3:03.61 | 17477 | 31262
4 | 6:56.63 | 2:32.02 | 31263 | 42664
5 | 9:28.65 | 3:32.10 | 42665 | 58574
6 | 13:01.00 | 0:11.15 | 58575 | 59414
7 | 13:12.15 | 6:23.62 | 59415 | 88201
8 | 19:36.02 | 2:41.45 | 88202 | 100321
9 | 22:17.47 | 4:55.46 | 100322 | 122492
10 | 27:13.18 | 0:42.11 | 122493 | 125653
11 | 27:55.29 | 5:14.70 | 125654 | 149273
12 | 33:10.24 | 4:15.25 | 149274 | 168423
13 | 37:25.49 | 4:11.14 | 168424 | 187262
14 | 41:36.63 | 4:34.52 | 187263 | 207864
15 | 46:11.40 | 0:05.14 | 207865 | 208253
16 | 46:16.54 | 0:49.63 | 208254 | 211991
17 | 47:06.42 | 1:22.48 | 211992 | 218189
18 | 48:29.15 | 0:28.25 | 218190 | 220314
Range status and errors
Selected range
Filename D:TorrentsSoundtrack - From Dusk Till DawnSoundtrack - From Dusk Till Dawn.wav
Peak level 100.0 %
Range quality 100.0 %
Copy CRC C1572DBA
Copy OK
No errors occurred
End of status report


a0c8823d873ed33b2ff720f9194e2df7eccb2d2c(Soundtrack,1996) От Заката До Рассвета / From Dusk Till Dawn - [FLAC (tracks + .cue), lossless] (Soundtrack,1996) От Заката До Рассвета / From Dusk Till Dawn - [FLAC (tracks + .cue), lossless] " />

Аплоадер: Админ, дата: 15-04-2009, 18:14, торрент скачан: 359 раз

Понравилась раздача? Посмотрите эти:
  • От заката до рассвета 3: Дочь палача / From Dusk Till Dawn 3: The Hangmans ...
  • (Soundtrack,2008) VA - RocknRolla / Рок-н-рольщик [FLAC (tracks+.cue), loss ...
  • ( Soundtrack,1999) VA - American Beauty Original Motion Picture Soundtrack ...
  • (2009) НОЧНЫЕ СНАЙПЕРЫ — Армия2009 (русский рок) [FLAC (lossless), tracks+. ...
  • (2009) SHAKIRA / She Wolf (US Edition) (Pop) [Flac (tracks+.cue), lossless] ...
  • (2010)Scorpions/Sting In The Tail [FLAC (tracks+cue), lossless]
  • (1989) Kaoma / Lambada (lambada / latin / ethnic) [FLAC (image+.cue), lossl ...
  • (2008) Pink / Funhouse (Pop) [FLAC (tracks) lossless]
  • (Дискография) GORILLAZ (Trip-Hop) [FLAC (tracks + .cue) lossless]
  • (2010) Ассаи / Лифт (Rap) [FLAC(image+.cue), lossless]
  • (2010) Начало / Inception (by Hans Zimmer) (Score) [FLAC (tracks+.cue) loss ...
  • (2012) Larry Miller / On The Edge (Blues Rock) [FLAC (tracks+.cue), Lossles ...
  • (2010) Rihanna / Loud (R&B) [FLAC (tracks+.cue), lossless]
  • (2012) Bobby Valentino / Dusk Till Dawn (R&B) [MP3, 320/CBR]
  • (2003) DJ Zinc / Faster (DnB, Breaks) [ FLAC (tracks+.cue), lossless]
  • От заката до рассвета 3: Дочь палача / From Dusk Till Dawn 3: "The Han ...
  • От заката до рассвета / From Dusk Till Dawn (Роберт Родригес) [1995г., ужас ...
  • (2010) Sade / Soldier Of Love ( jazz, soul, blues) [FLAC (tracks) lossless] ...
  • (2010) Morcheeba / Blood Like Lemonade ( Electronic, Downtempo, Pop, Trip-h ...
  • От заката до рассвета / From Dusk Till Dawn (Роберт Родригес, ужасы, боевик ...
  • (2011) Linkin Park / Iridescent (Alternative Rock) [FLAC(image+.cue), lossl ...
  • От заката до рассвета / From Dusk Till Dawn (Роберт Родригес, ужасы, 1995) ...
  • От заката до рассвета / From Dusk Till Dawn (Роберт Родригес / Robert Rodri ...
  • (2011) Ленинград / Хна (Rock) [FLAC (tracks+.cue), lossless]
  • (2011) Metallica / Beyond Magnetic (Thrash Metal) [FLAC (image+.cue), lossl ...
  • Информация
    Посетители, находящиеся в группе Гости, не могут оставлять комментарии к данной публикации.