вход на сайт

Имя пользователя :
Пароль :

Восстановление пароля Регистрация
(Soundtrack, 2004) Massive Attack - Danny The Dog / Дэнни Цепной Пес - [FLAC (tracks), lossless]
Рейтинг:
(голосов: 1)



[img]{THEME}/images/logopost.png[/img]



Исполнитель: Massive Attack
Альбом: Danny The Dog
Год выпуска: 2004
Жанр: Soundtrack
Формат: FLAC
Битрейт: lossless
Тип битрейта: CBR
Продолжительность: 00:58:42

Tрэклист:
▼1. Opening Title (1:10)
2. Atta Boy (1:29)
3. P Is For Piano (1:57)
4. Simple Rules (1:20)
5. Polaroid Girl (2:59)
6. Sam (3:08)
7. One Thought At A Time (4:23)
8. Confused Images (1:59)
9. Red Light Means Go (2:04)
10. Collar Stays On (1:51)
11. Youve Never Had A Dream (2:46)
12. Right Way To Hold A Spoon (3:19)
13. Everybodys Got A Family (1:29)
14. Two Rocks And A Cup Of Water (2:32)
15. Sweet Is Good (1:33)
16. Montage (1:54)
17. Everything About You Is New (2:25)
18. The Dog Obeys (2:20)
19. Danny The Dog (5:53)
20. I Am Home (4:14)
21. The Academy (1:47)

Cue
▼REM GENRE Trip-Hop
REM DATE 2004
REM DISCID 1C0C5515
REM COMMENT "ExactAudioCopy v0.95b3"
PERFORMER "Massive Attack"
TITLE "Danny The Dog"
FILE "01 - Massive Attack - Opening Title.wav" WAVE
TRACK 01 AUDIO
TITLE "Opening Title"
PERFORMER "Massive Attack"
INDEX 01 00:00:00
FILE "02 - Massive Attack - Atta Boy.wav" WAVE
TRACK 02 AUDIO
TITLE "Atta Boy"
PERFORMER "Massive Attack"
INDEX 01 00:00:00
FILE "03 - Massive Attack - P Is For Piano.wav" WAVE
TRACK 03 AUDIO
TITLE "P Is For Piano"
PERFORMER "Massive Attack"
INDEX 01 00:00:00
TRACK 04 AUDIO
TITLE "Simple Rules"
PERFORMER "Massive Attack"
INDEX 00 01:56:35
FILE "04 - Massive Attack - Simple Rules.wav" WAVE
INDEX 01 00:00:00
FILE "05 - Massive Attack - Polaroid Girl.wav" WAVE
TRACK 05 AUDIO
TITLE "Polaroid Girl"
PERFORMER "Massive Attack"
INDEX 01 00:00:00
TRACK 06 AUDIO
TITLE "Sam"
PERFORMER "Massive Attack"
INDEX 00 02:58:00
FILE "06 - Massive Attack - Sam.wav" WAVE
INDEX 01 00:00:00
FILE "07 - Massive Attack - One Thought At A Time.wav" WAVE
TRACK 07 AUDIO
TITLE "One Thought At A Time"
PERFORMER "Massive Attack"
INDEX 01 00:00:00
FILE "08 - Massive Attack - Confused Images.wav" WAVE
TRACK 08 AUDIO
TITLE "Confused Images"
PERFORMER "Massive Attack"
INDEX 01 00:00:00
FILE "09 - Massive Attack - Red Light Means Go.wav" WAVE
TRACK 09 AUDIO
TITLE "Red Light Means Go"
PERFORMER "Massive Attack"
INDEX 01 00:00:00
FILE "10 - Massive Attack - Collar Stays On.wav" WAVE
TRACK 10 AUDIO
TITLE "Collar Stays On"
PERFORMER "Massive Attack"
INDEX 01 00:00:00
FILE "11 - Massive Attack - Youve Never Had A Dream.wav" WAVE
TRACK 11 AUDIO
TITLE "Youve Never Had A Dream"
PERFORMER "Massive Attack"
INDEX 01 00:00:00
FILE "12 - Massive Attack - Right Way To Hold A Spoon.wav" WAVE
TRACK 12 AUDIO
TITLE "Right Way To Hold A Spoon"
PERFORMER "Massive Attack"
INDEX 01 00:00:00
FILE "13 - Massive Attack - Everybodys Got A Family.wav" WAVE
TRACK 13 AUDIO
TITLE "Everybodys Got A Family"
PERFORMER "Massive Attack"
INDEX 01 00:00:00
FILE "14 - Massive Attack - Two Rocks And A Cup Of Water.wav" WAVE
TRACK 14 AUDIO
TITLE "Two Rocks And A Cup Of Water"
PERFORMER "Massive Attack"
INDEX 01 00:00:00
TRACK 15 AUDIO
TITLE "Sweet Is Good"
PERFORMER "Massive Attack"
INDEX 00 02:31:39
FILE "15 - Massive Attack - Sweet Is Good.wav" WAVE
INDEX 01 00:00:00
FILE "16 - Massive Attack - Montage.wav" WAVE
TRACK 16 AUDIO
TITLE "Montage"
PERFORMER "Massive Attack"
INDEX 01 00:00:00
TRACK 17 AUDIO
TITLE "Everything About You Is New"
PERFORMER "Massive Attack"
INDEX 00 01:53:50
FILE "17 - Massive Attack - Everything About You Is New.wav" WAVE
INDEX 01 00:00:00
FILE "18 - Massive Attack - The Dog Obeys.wav" WAVE
TRACK 18 AUDIO
TITLE "The Dog Obeys"
PERFORMER "Massive Attack"
INDEX 01 00:00:00
FILE "19 - Massive Attack - Danny The Dog.wav" WAVE
TRACK 19 AUDIO
TITLE "Danny The Dog"
PERFORMER "Massive Attack"
INDEX 01 00:00:00
FILE "20 - Massive Attack - I Am Home.wav" WAVE
TRACK 20 AUDIO
TITLE "I Am Home"
PERFORMER "Massive Attack"
INDEX 01 00:00:00
FILE "21 - Massive Attack - The Academy.wav" WAVE
TRACK 21 AUDIO
TITLE "The Academy"
PERFORMER
050e0b0c138391c434abd8a0e5dd7324653f1ed8(Soundtrack, 2004) Massive Attack - Danny The Dog / Дэнни Цепной Пес - [FLAC (tracks), lossless] (Soundtrack, 2004) Massive Attack - Danny The Dog / Дэнни Цепной Пес - [FLAC (tracks), lossless] " />

Аплоадер: Админ, дата: 28-02-2009, 19:01, торрент скачан: 359 раз

Понравилась раздача? Посмотрите эти:
  • (Сборник, 1991-2010) Massive Attack / 5 Альбомов (Trip-Hop) [FLAC (tracks+. ...
  • Stack Attack (2013) (Eng) [Android]
  • Sounds To Sample - Utah Saints Something Good For Sylenth And Massive [NMSV ...
  • (1997) Black Attack / On The Edge (Rap) [mp3, 320 / CBR]
  • (2008) Attack Attack! / Someday Came Suddenly (Post-Hardcore, Electronic, S ...
  • (2010) Attack Attack! / Attack Attack! (Electronic / Post-Hardcore) [MP3, 3 ...
  • (Дискография) Massive Attack (Trip-Hop) [Mp3, 320/CBR]
  • (2012 ) Talib Kweli & Z-Trip / Attack The Block (Rap/Hip-Hop) [MP3, 320/CBR ...
  • (Дискография, 2006-2011) Art of Dying (Alt.Rock/ Post-Grunge) [FLAC (tracks ...
  • [Jason Chan] Massive Black - Jason Chan Thunderdome Illustration (рисование ...
  • [Bruno Nox] Massive Black - Bruno Nox Gore Free Sketch (рисование, компьюте ...
  • [Звуки] Shockwave - Massive Style Vol 1 [WAV]
  • [Пресеты] NI Massive - 15000 Presets 2012 [.ksd, wav]
  • (2010) Massive Attack / Heligoland (Electronic, Trip Hop) [FLAC (tracks) lo ...
  • Battlefield 2142 Massive Attack / Поля Сражений 2142 Массированая Атака(Ele ...
  • (2010) Massive Attack / Heligoland (Deluxe Edition) (Downtempo, Trip Hop) [ ...
  • [Jason Chan] Massive Black - Jason Chan Quick Sketch (рисование, компьютерн ...
  • [Пресеты] Vengeance Dubstep presets vol.1 + vol.2 for NI Massive
  • Native Instruments - Massive 1.3 + 3800 Presets [ASSiGN] (x32/x64) [En]
  • [Пресеты] Hy2rogen - Massive Soundset Vol 1 [KSD]
  • (2011) Shadow Attack / Aqua Dipped (Dubstep, Experimental) [mp3, 320 kbps/C ...
  • (2012) Attack Attack! / This Means War (Post-Hardcore) [MP3, 276/VBR]
  • Serious Sam: Kamikaze Attack (Croteam / ENG / 2012) [P]
  • (2012) Attack Attack! / This Means War (Post-Hardcore, Electronic) [MP3, 32 ...
  • Trey Songz / Heart Attack [2012, R&B, HDRip]
  • Информация
    Посетители, находящиеся в группе Гости, не могут оставлять комментарии к данной публикации.