вход на сайт

Имя пользователя :
Пароль :

Восстановление пароля Регистрация
(2013) Ramin Djawadi / Game of Thrones: Season 3 (OST) [FLAC (tracks+.cue), lossless]
Рейтинг:
(голосов: 1)



[img]{THEME}/images/logopost.png[/img]



Исполнитель: Ramin Djawadi
Страна: USA
Альбом: Game of Thrones: Season 3
Тип альбома: Студийный
Год выпуска: 2013
Жанр: Soundtrack, Score
Аудиокодек: FLAC (*.flac)
Тип рипа: tracks+.cue
Битрейт: lossless
Продолжительность: 00:53:20


Tреклист:
01. Main Title (01:44)
02. A Lannister Always Pays His Debts (02:50)
03. Dracarys (02:53)
04. I Paid the Iron Price (03:15)
05. Chaos Is a Ladder (02:58)
06. Dark Wings, Dark Words (02:47)
07. You Know Nothing (03:19)
08. Wall of Ice (03:19)
09. Kingslayer (02:11)
10. I Have to Go North (01:23)
11. White Walkers (03:20)
12. Its Always Summer Under the Sea (Shireens Song)(01:17)
13. Reek (02:41)
14. The Bear and the Maiden Fair (02:56)
15. The Night Is Dark (02:56)
16. The Lannisters Send Their Regards (05:44)
17. Heir to Winterfell (02:14)
18. Mhysa (03:54)
19. For the Realm (01:31)


Лог создания рипа (EAC log) ▼TextExact Audio Copy V1.0 beta 3 from 29. August 2011

EAC extraction logfile from 11. July 2013, 18:19

Ramin Djawadi / Game of Thrones (Season 3 OST)

Used drive : SONY BD RW BWU-500S Adapter: 0 ID: 0

Read mode : Secure
Utilize accurate stream : Yes
Defeat audio cache : Yes
Make use of C2 pointers : No

Read offset correction : 6
Overread into Lead-In and Lead-Out : No
Fill up missing offset samples with silence : Yes
Delete leading and trailing silent blocks : No
Null samples used in CRC calculations : Yes
Used interface : Native Win32 interface for Win NT & 2000
Gap handling : Appended to previous track

Used output format : User Defined Encoder
Selected bitrate : 1024 kBit/s
Quality : High
Add ID3 tag : No
Command line compressor : C:Program Files (x86)Exact Audio CopyFLACFLAC.EXE
Additional command line options : -8 -V -T "artist=%artist%" -T "title=%title%" -T "album=%albumtitle%" -T "date=%year%" -T "tracknumber=%tracknr%" -T "genre=%genre%" %source%

TOC of the extracted CD

Track | Start | Length | Start sector | End sector
---------------------------------------------------------
1 | 0:00.00 | 1:44.20 | 0 | 7819
2 | 1:44.20 | 2:50.42 | 7820 | 20611
3 | 4:34.62 | 2:53.29 | 20612 | 33615
4 | 7:28.16 | 3:15.41 | 33616 | 48281
5 | 10:43.57 | 2:58.25 | 48282 | 61656
6 | 13:42.07 | 2:47.68 | 61657 | 74249
7 | 16:30.00 | 3:19.67 | 74250 | 89241
8 | 19:49.67 | 3:19.55 | 89242 | 104221
9&
2822e11495a2b0f2e7b39be943ceb546ffaa28db(2013) Ramin Djawadi / Game of Thrones: Season 3 (OST) [FLAC (tracks+.cue), lossless] (2013) Ramin Djawadi / Game of Thrones: Season 3 (OST) [FLAC (tracks+.cue), lossless] " />

Аплоадер: Админ, дата: 9-01-2014, 14:26, торрент скачан: 359 раз

Понравилась раздача? Посмотрите эти:
  • (2013) Prodigy & The Alchemist / Albert Einstein (Underground Hip-Hop) [FLA ...
  • (2010) Zaz / Zaz (Nu jazz, Chanson, Soul) [FLAC (tracks+.cue), lossless]
  • (2011) Виктория - победительница / Victorious (OST) [FLAC (tracks+.cue), lo ...
  • (2011) B.B. King / Icon (Blues) [FLAC (tracks+.cue), lossless]
  • (2012) Yiruma / Stay In Memory (New Age, Instrumental, Neoclassical, Piano) ...
  • (2012, Сборник) VA / Saxophone Golden Best (Jazz, Smooth Jazz) [FLAC (track ...
  • (2012) Tomandandy / Resident Evil: Retribution (Score, Soundtrack)[FLAC (tr ...
  • (1996) The Rasmus / Peep (Finnish Version) (Alternative Rock) [FLAC (tracks ...
  • (2012) Usher / Looking 4 Myself (Deluxe Version) (R&B, Soul) [FLAC (tracks+ ...
  • (2011) Revocation / Chaos of Forms (Death Metal/Thrash) [FLAC (tracks+.cue) ...
  • (2011) Дельфин / Существо (Alternative|Experimental) [FLAC (tracks+.cue), l ...
  • (2011) Ленинград / Хна (Rock) [FLAC (tracks+.cue), lossless]
  • (2012) Les Friction / Les Friction (Alt. Rock/Neo-Classical/Orchestral) [FL ...
  • (2011) SeeS / The enD (Progressive/Math Metal) [FLAC (tracks+.cue), lossles ...
  • (2012) Our Lady Peace / Curve (Alternative/Rock) [FLAC (tracks+.cue), lossl ...
  • (2011) The Browning / Burn This World (Deathcore/Electronic) [FLAC (tracks+ ...
  • (2012) KoRn feat. Skrillex / Chaos Lives In Everything (UK Promo) (Nu-metal ...
  • (2012) Nine Lashes / World We View (Alt.Rock/Alt.Metal/Christian) [FLAC (tr ...
  • (2011) Phinehas / Thegodmachine (Metalcore) [FLAC (tracks+.cue), lossless]
  • (2012) For Today / Immortal (Metalcore, Hardcore, Christian) [FLAC (tracks+ ...
  • Информация
    Посетители, находящиеся в группе Гости, не могут оставлять комментарии к данной публикации.