вход на сайт

Имя пользователя :
Пароль :

Восстановление пароля Регистрация
(1999) Ennio Morricone / The Legend of 1900 (OST) [APE , (tracks+.cue), lossless]
Рейтинг:
(голосов: 1)



[img]{THEME}/images/logopost.png[/img]



Исполнитель: Ennio Morricone
Альбом: The Legend of 1900
Тип альбома: Студийный
Год выпуска: 1999
Жанр: OST
Аудиокодек: APE (*.ape)
Тип рипа: tracks+.cue
Битрейт: lossless
Продолжительность: 00:56:30

Tреклист:

1 - 1900`s Theme [01:38]
2 - The Legend of the Pianist [08:04]
3 - The Crisis [02:46]
4 - The Crave (Jelly Roll Morton) [01:46]
5 - A Goodbye to Friends [02:32]
6 - Study for Three Hands [01:00]
7 - Playing Love [04:26]
8 - A Mozart Reincarnated [01:58]
9 - Child [02:44]
10 - 1900`s Madness #1 [02:14]
11 - Danny`s Blues [02:09]
12 - Second Crisis [02:03]
13 - Peacherine Rag (Scott Joplin) [02:37]
14 - Nocturne with No Moon [02:41]
15 - Before the End [01:11]
16 - Playing Love [03:02]
17 - I Can and then [02:17]
18 - 1900`s Madness #2 [01:17]
19 - Silent Goodbye [01:37]
20 - Ships and Snow [02:29]
21 - Lost Boys Calling (Lyrics by Roger Waters) [05:18]

Отчет EAC ▼TextExact Audio Copy V0.99 prebeta 4 from 23. January 2008

Отчёт EAC об извлечении, выполненном 3. июня 2009, 13:51

Ennio Morricone / The Legend of 1900

Дисковод: PIONEER DVD-RW DVR-215 Adapter: 2 ID: 0

Режим чтения : Достоверность
Использование точного потока : Да
Отключение кэша аудио : Да
Использование указателей C2 : Нет

Коррекция смещения при чтении : 48
Способность читать области Lead-in и Lead-out : Нет
Заполнение пропущенных сэмплов тишиной : Да
Удаление блоков с тишиной в начале и конце : Нет
При вычислениях CRC использовались нулевые сэмплы : Да
Интерфейс : Установленный внешний ASPI-интерфейс

Выходной формат : Внутренние WAV-операции
Формат сэмплов : 44.100 Гц; 16 бит; стерео


TOC извлечённого CD

Трек | Старт | Длительность | Начальный сектор | Конечный сектор
---------------------------------------------------------------------
1 | 0:00.00 | 1:42.02 | 0 | 7651
2 | 1:42.02 | 8:08.00 | 7652 | 44251
3 | 9:50.02 | 2:50.00 | 44252 | 57001
4 | 12:40.02 | 1:49.68 | 57002 | 65244
5 | 14:29.70 | 2:36.72 | 65245 | 77016
6 | 17:06.67 | 1:03.73 | 77017 | 81814
7 | 18:10.65 | 4:29.72 | 81815 | 102061
8 | 22:40.62 | 2:02.00 | 102062 | 111211
9 | 24:42.62 | 2:47.73 | 111212 | 123809 &
ec6090823a1417e761220aa956450d582f3cd41f(1999) Ennio Morricone / The Legend of 1900 (OST) [APE , (tracks+.cue), lossless] (1999) Ennio Morricone / The Legend of 1900 (OST) [APE , (tracks+.cue), lossless] " />

Аплоадер: Админ, дата: 24-06-2012, 01:14, торрент скачан: 359 раз

Понравилась раздача? Посмотрите эти:
  • (1992) Smokie / The Story Of Smokie (2CD Set Germany, BMG, Ariola) (Rock) [ ...
  • (2012) Григорий Лепс / Полный вперёд (Шансон) [FLAC (image+.cue), Lossless ...
  • (1998) Ennio Morricone / Легенда о пианисте / Legend Of 1900 (OST) [MP3 32 ...
  • (2004) Ennio Morricone / Original Motion Picture Soundtrack The Good, The B ...
  • (2004) ELLA FITZGERALD - The Best Of Ella Fitzgerald - Summertime(Vocal Jaz ...
  • (2009) НОЧНЫЕ СНАЙПЕРЫ — Южный полюс (русский рок, сингл) [FLAC (lossless), ...
  • (2000) Tic Tac Toe / Ist der Ruf erst ruiniert... (Rap,Hip-hop) [Lossless, ...
  • (2008) НоГГано / Первый (Rap) [APE(image+cue), lossless]
  • (2004) VA / Инструментальная музыка - Лучшие мировые хиты (Instrumental) [A ...
  • (2004) VA / Инструментальная музыка - Лучшие мировые хиты Vol.6 (2CD) (Inst ...
  • (1999) Ennio Morricone / Romantic Collection (Classical) [FLAC (image+.cue) ...
  • (1994) Joy / Grand Collection (EuroDisco) [FLAC (image+.cue) lossless]
  • (1999) Paul Mauriat / Diamond Collections (Instrumental,Easy Listening) [FL ...
  • (2010) ST1M / Октябрь (Rap) [APE(image+.cue), lossless]
  • (2010) ДиДюЛя / Аромат (flamenco, instrumental, folk) [APE (image + .cue), ...
  • (1984) Boney M / Ten Thousand Lightyears (Disco) [APE (image+.cue) lossles ...
  • (2010) ДаБац (Da Budz) / Вершки Да Корешки(Rap) [APE (image+.cue), lossless ...
  • (2011) Within Temptation / The Unforgiving (Symphonic Gothic Metal) [FLAC ( ...
  • (2011) Blues Cousins / KGB Blues (Blues Rock) [FLAC (image+.cue), lossless] ...
  • (1995) Ennio Morricone / The Ennio Morricone Anthology: A Fistful of Film M ...
  • (2012) The Rasmus / The Rasmus (Alternative Rock/Melodic Rock) [FLAC (track ...
  • (2009) Rihanna / Rated R (R`n`B) [APE (image+.cue)]
  • (2010) Lara Fabian / The Best of (2CD Limited Edition) (Pop) [Flac(image+.c ...
  • (2010) 25/17 (Иезекииль 25:17, Ант, Бледный) / Зебра (Rap) [FLAC (tracks+.c ...
  • (2008) Студия 80 / Придуманный Мир (Pop) [FLAC (image+.cue), lossless]
  • Информация
    Посетители, находящиеся в группе Гости, не могут оставлять комментарии к данной публикации.