вход на сайт

Имя пользователя :
Пароль :

Восстановление пароля Регистрация
(2001) Катя Огонёк / Дорожный роман (Шансон) [FLAC (image+.cue)]
Рейтинг:
(голосов: 1)



[img]{THEME}/images/logopost.png[/img]



Исполнитель: Катя Огонёк
Альбом: Дорожный роман
Тип альбома: Студийный (LP)
Год выпуска: 2001
Жанр: Шансон
Формат: FLAC (image+.cue)
Битрейт: lossless
Продолжительность: 00:48:12

Tреклист:
01. Дорожный роман (5.30)
02. Алюминиевый крестик (3.50)
03. Далеко - далеко (3.12)
04. Дочка (3.21)
05. До свидания (Уезжаю) (3.21)
06. Письмо на зону (4.54)
07. Счастье зечки (3.05)
08. Подруженька - 2 (4.12)
09. Лагерное танго (4.08)
10. На дальней пристани (3.55)
11. Волк (3.42)
12. Здравствуй любовь (5.02)

Релиз от vlad victorovich
Сканированные обложка и диск внутри!

Отчет EAC:
▼Exact Audio Copy V0.99 prebeta 5 from 4. May 2009

Отчёт EAC об извлечении, выполненном 30. марта 2010, 22:57

Катя Огонёк / Дорожный роман

Дисковод: ASUSDRW-1814BLT Adapter: 1ID: 0

Режим чтения : Достоверность
Использование точного потока : Да
Отключение кэша аудио: Да
Использование указателей C2: Нет

Коррекция смещения при чтении : 6
Способность читать области Lead-in и Lead-out : Нет
Заполнение пропущенных сэмплов тишиной: Да
Удаление блоков с тишиной в начале и конце: Нет
При вычислениях CRC использовались нулевые сэмплы : Да
Интерфейс : Встроенный Win32-интерфейс для Win NT/2000

Выходной формат : Внутренние WAV-операции
Формат сэмплов: 44.100 Гц; 16 бит; стерео

TOC извлечённого CD

Трек | Старт| Длительность | Начальный сектор | Конечный сектор
---------------------------------------------------------------------
1|0:00.00 |5:30.20 | 0|24769
2|5:30.20 |3:50.12 | 24770|42031
3|9:20.32 |3:11.49 | 42032|56405
4| 12:32.06 |3:20.71 | 56406|71476
5| 15:53.02 |3:21.26 | 71477|86577
6| 19:14.28 |4:54.30 | 86578| 108657
7| 24:08.58 |3:05.02 |108658| 122534
8| 27
7fcefdccd9afd01987b6bbff2f6a200c8b984c88(2001) Катя Огонёк / Дорожный роман (Шансон) [FLAC (image+.cue)] (2001) Катя Огонёк / Дорожный роман (Шансон) [FLAC (image+.cue)] " />

Аплоадер: Админ, дата: 3-04-2010, 04:56, торрент скачан: 359 раз

Понравилась раздача? Посмотрите эти:
  • (2000) Lenny Kravitz / Greatest Hits (Rock, Funk) [FLAC (image+.cue), lossl ...
  • (2002) a-ha / Lifelines (Alternative Rock, Synth-pop ) [FLAC (image + .cue ...
  • (2013) Валерий Войт и группа Первомайка / Под стук колёс (Шансон) [FLAC (im ...
  • (2012) Григорий Лепс / Полный вперёд (Шансон) [FLAC (image+.cue), Lossless ...
  • (2009) СЕРГЕЙ НАГОВИЦЫН / The Best Of - 2009 (Шансон) [FLAC (image+.cue) lo ...
  • (2000) Tic Tac Toe / Ist der Ruf erst ruiniert... (Rap,Hip-hop) [Lossless, ...
  • (2010) Мафик / Ангел (Шансон) [FLAC(image+cue), lossless]
  • (1994) Joy / Grand Collection (EuroDisco) [FLAC (image+.cue) lossless]
  • (2010) Ласковый Май (Солист Юра Шатунов) / Оригинальные записи 1988-1989 (2 ...
  • (2006) Батырхан Шукенов/ Отан Ана (Pop) [FLAC (image+.cue) lossless]
  • (2010) Батыр / Осторожно, милая девушка! (Pop) [FLAC (image+ cue)]
  • (1985) BABYS GANG / Challenger (Pop,Italo Disco) [APE(image+.cue)lossless] ...
  • (2011) Within Temptation / The Unforgiving (Symphonic Gothic Metal) [FLAC ( ...
  • (2011) Blues Cousins / KGB Blues (Blues Rock) [FLAC (image+.cue), lossless] ...
  • (Дискография, 1998-2011) Катя Огонёк (Шансон) [FLAC (image+.cue), lossless] ...
  • ( 2001) Воскресение / Звездная коллекция (Rock) [FLAC (image+.cue) lossless ...
  • (1993) Любовь Успенская / Любимый (шансон) [APE (image+.cue), lossless]
  • (2010) Lara Fabian / The Best of (2CD Limited Edition) (Pop) [Flac(image+.c ...
  • (Дискография, 2005-2008) Ёлка (R&B, Reggae, Pop) [APE (image+.cue); FLAC (i ...
  • (Дискография, 2001-2011) Аня Воробей (Шансон) [FLAC (image+.cue), lossless] ...
  • (2009, сборник) VA / Любимой Женщине (душевный) (Шансон) [FLAC (image+.сue) ...
  • (1995) Yaki-Da / Pride (Pop, Eurodance) [FLAC (image+.сue), lossless]
  • (2000) Парк Горького (Gorky Park) / The Best (Glam Metal/Hard Rock) [FLAC ...
  • (2004) Ex-Сектор Газа / Огненный рай (Punk-Rock) [FLAC (image+.cue), lossle ...
  • (2008) Студия 80 / Придуманный Мир (Pop) [FLAC (image+.cue), lossless]
  • Информация
    Посетители, находящиеся в группе Гости, не могут оставлять комментарии к данной публикации.