вход на сайт

Имя пользователя :
Пароль :

Восстановление пароля Регистрация
(2012, Сборник) VA / Новогодняя тридцатка 2013 (Шансон) [FLAC (image+.cue), lossless]
Рейтинг:
(голосов: 1)



[img]{THEME}/images/logopost.png[/img]



Сборник
Исполнитель: Various Artists
Страна: Россия, Украина
Название сборника: Новогодняя тридцатка 2013
Год выпуска: 2012
Жанр: Шансон
Страна (Издатель, Каталожный номер): Россия (Квадро-Диск Рек., KTL12-919)
Аудиокодек: FLAC (*.flac)
Тип рипа: image+.cue
Битрейт: lossless
Log-файлы: Присутствуют.
Наличие сканов в содержимом раздачи: Нет.
Продолжительность: 01:53:08


CD #1 (FLAC/image+.cue) ▼Продолжительность: 00:56:33

Tреклист:
01. В.Казаченко - Ты с мной была (03:28)
02. Е.Ваенга - Где была (02:54)
03. А.Маршал и В.Быков - Новый год (03:16)
04. С.Михайлов - Веди меня,Бог мой (04:57)
05. Л.Агутин - Все однажды кончится (04:14)
06. А.Ломинский - Полночь (03:20)
07. С.Филиппов - Зима твоих оправданий (04:31)
08. ГрРазмер Project - Падает снег (03:48)
09. Любаша и GRIZZ-LEE - Новый год вместе (03:04)
10. Н.Власова - Зимой (03:11)
11. Л.Князева - Новогодняя (03:19)
12. Гр.Фристаил - Падали снежинки (03:30)
13. Н.Трубач и И.Суруханов - Счастливый билет (04:00)
14. А.Свиридова - Падал снег (04:51)
15. И.Куприянов - Новый год (04:04)
Лог создания рипа (EAC log) ▼TextExact Audio Copy V1.0 beta 3 from 29. August 2011

EAC extraction logfile from 2. December 2012, 10:10

Various Artists / Новогодняя Тридцадка 2013 CD1

Used drive : PIONEER DVD-RW DVR-115D Adapter: 0 ID: 0

Read mode : Secure
Utilize accurate stream : Yes
Defeat audio cache : Yes
Make use of C2 pointers : No

Read offset correction : 48
Overread into Lead-In and Lead-Out : No
Fill up missing offset samples with silence : Yes
Delete leading and trailing silent blocks : No
Null samples used in CRC calculations : Yes
Used interface : Native Win32 interface for Win NT & 2000

Used output format : User Defined Encoder
Selected bitrate : 768 kBit/s
Quality : High
Add ID3 tag : No
Command line compressor : C:Program FilesExact Audio CopyFLACFLAC.EXE
Additional command line options : -6 -V -T "ARTIST=%artist%" -T "TITLE=%title%" -T "ALBUM=%albumtitle%" -T "DATE=%year%" -T "TRACKNUMBER=%tracknr%" -T "GENRE=%genre%" -T "COMMENT=%comment%" -T "BAND=%albuminterpret%" -T "ALBUMARTIST=%albuminterpret%" -T "COMPOSER=%composer%" %haslyrics%--tag-from-file=LYRICS="%lyricsfile%"%haslyrics% -T "DISCNUMBER=%cdnumber%" -T "TOTALDISCS=%totalcds%" -T "TOTALTRACKS=%numtracks%" %hascover%--picture="%coverfile%"%hascover% %source% -o %dest%


TOC of the extracted CD

Track | Start | Length | Start sector | End sector
---------------------------------------------------------
1 | 0:00.00 | 3:28.71 | 0 | 15670
2 | 3:28.71 | 2:54.56 | 15671 | 28776
3 | 6:23.52 | 3:16.46 | 28777 | 43522
4 | 9:40.23 | 4:57.18 | 43523 | 65815 &nbs
496d25a75f16f16c182c7cd1a67b57b62084483b(2012, Сборник) VA / Новогодняя тридцатка 2013 (Шансон) [FLAC (image+.cue), lossless] (2012, Сборник) VA / Новогодняя тридцатка 2013 (Шансон) [FLAC (image+.cue), lossless] " />

Аплоадер: Админ, дата: 3-01-2013, 18:23, торрент скачан: 359 раз

Понравилась раздача? Посмотрите эти:
  • (2013) The Holmes Brothers / Brotherhood (Modern Electric Blues, Soul, Gosp ...
  • (2013) Buddy Guy / Rhythm & Blues (2CD) (Blues) [FLAC (image+.cue), Lossles ...
  • (2013) The Hamburg Blues Band / Friends For A LIVEtime (Blues Rock, Rock) [ ...
  • (2013) Leslie West / Still Climbing (Rock, Hard Rock, Blues Rock) [FLAC (im ...
  • (2013) Paul McCartney / New (Deluxe Edition) (Rock) [FLAC (image,+.cue), lo ...
  • (2013) Elton John / The Diving Board (Rock, Pop Rock) [FLAC (image+.cue), L ...
  • (2013) Govt Mule / Shout! (2CD) (Blues Rock) [FLAC (image+.cue), Lossless]
  • (2013) Fall Out Boy / Save Rock and Roll (Pop-Punk) [ALAC (tracks), lossles ...
  • (2010) Clean Tears / Innerve (Techno, Vocaloid) [FLAC (tracks+.cue), lossle ...
  • (2012) Marconi Union / Different Colours (Post Rock, Downtempo, Ambient) [F ...
  • (2008, Сборник) VA / Relax Piano - Yesterday - Trai Tim Mua Thu - Vol.7 (Ne ...
  • (2012) Tomandandy / Resident Evil: Retribution (Score, Soundtrack)[FLAC (tr ...
  • (1996) The Rasmus / Peep (Finnish Version) (Alternative Rock) [FLAC (tracks ...
  • (2012) Buckethead / Electric Sea (Experimental/Acoustic/Ambient/Rock) [FLAC ...
  • (2012) Les Friction / Les Friction (Alt. Rock/Neo-Classical/Orchestral) [FL ...
  • (2011) SeeS / The enD (Progressive/Math Metal) [FLAC (tracks+.cue), lossles ...
  • (2012) Bleeding Through / The Great Fire (Symphonic Metalcore/Hardcore) [FL ...
  • (2012) Our Lady Peace / Curve (Alternative/Rock) [FLAC (tracks+.cue), lossl ...
  • (2012) Nine Lashes / World We View (Alt.Rock/Alt.Metal/Christian) [FLAC (tr ...
  • (2012) For Today / Immortal (Metalcore, Hardcore, Christian) [FLAC (tracks+ ...
  • Информация
    Посетители, находящиеся в группе Гости, не могут оставлять комментарии к данной публикации.