вход на сайт

Имя пользователя :
Пароль :

Восстановление пароля Регистрация
(2004) Игорь Малинин / От Штирлица до Путина (Pop) [FLAC (image+.cue), lossless]
Рейтинг:
(голосов: 1)



[img]{THEME}/images/logopost.png[/img]




Исполнитель:Игорь Малинин
Страна: Россия
Альбом:От Штирлица до Путина
Тип альбома:Студийный
Год выпуска:2004
Жанр:Шансон
Год первоначального издания альбома: 2004
Страна (Издатель, Каталожный номер): Россия (СПЦ Парнас, CD001/10)
Аудиокодек: FLAC (*.flac)
Тип рипа: image+.cue
Битрейт: lossless
Продолжительность: 01:17:12

Tреклист:
01. Словенский базар (04:53)
02. Бутылочки (03:41)
03. Письмо Путину (03:07)
04. Дринк-дринк (02:16)
05. Не отрывайся от коллектива (03:12)
06. Моджахеды (03:38)
07. А вы о чём подумали? (03:55)
08. Застрахyй-ка!.. (04:19)
09. Вёдра-коромысла (remix) (03:41)
10. Самогоночка (04:00)
11. Дискотека по-русски (03:26)
12. Медицина - это бизнес (04:01)
13. Косячки (remix) (03:23)
14. Парашютисты (04:39)
15. Ля-ля, тополя... (remix) (03:38)
16. Бочка пива (04:20)
17. Хорошо живётся старику (03:22)
18. Инопланетянин (04:42)
19. Муму (04:38)
20. Привет, славяне-кореша! (bonus) (04:10)

Лог создания рипа ▼TextExact Audio Copy V0.99 prebeta 5 from 4. May 2009

EAC extraction logfile from 20. November 2012, 0:41

Игорь Малинин / От Штирлица до Путина

Used drive : PIONEER DVD-RW DVR-212 Adapter: 8 ID: 0

Read mode : Secure
Utilize accurate stream : Yes
Defeat audio cache : Yes
Make use of C2 pointers : No

Read offset correction : 48
Overread into Lead-In and Lead-Out : No
Fill up missing offset samples with silence : Yes
Delete leading and trailing silent blocks : No
Null samples used in CRC calculations : Yes
Used interface : Installed external ASPI interface

Used output format : Internal WAV Routines
Sample format : 44.100 Hz; 16 Bit; Stereo

TOC of the extracted CD

Track | Start | Length | Start sector | End sector
---------------------------------------------------------
1 | 0:00.00 | 4:53.45 | 0 | 22019
2 | 4:53.45 | 3:41.28 | 22020 | 38622
3 | 8:34.73 | 3:07.68 | 38623 | 52715
4 | 11:42.66 | 2:16.27 | 52716 | 62942
5 | 13:59.18 | 3:12.12 | 62943 | 77354
6 | 17:11.30 | 3:38.69 | 77355 | 93773
7 | 20:50.24 | 3:55.55 | 93774 | 111453
8 | 24:46.04 | 4:19.73 | 111454 | 130951
9 | 29:06.02 | 3:41.15 | 130952 | 147541
10 | 32:47.17 | 4:00.53 | 147542 | 165594
11 | 36:47.70 | 3:26.53 | 165595 | 181097
12 | 40:14.48 | 4:01.05 | 181098 | 199177
13 | 44:15.53 | 3:23.52 | 199178 | 214454
14 | 47:39.30 | 4:39.65 | 
3e20204a407debf8f8922ac2e0f0c2a68bcfd1ec(2004) Игорь Малинин / От Штирлица до Путина (Pop) [FLAC (image+.cue), lossless] (2004) Игорь Малинин / От Штирлица до Путина (Pop) [FLAC (image+.cue), lossless] " />

Аплоадер: Админ, дата: 5-12-2012, 20:43, торрент скачан: 359 раз

Понравилась раздача? Посмотрите эти:
  • (1993) Mick Jagger / Wandring Spirit (Rock) [FLAC(image+.cue), lossless]
  • (1996) George Michael / Older (1st Press Japan) (Electronic, Pop/Rock) [FLA ...
  • (2013) Мумий Тролль / SOS Матросу - 2013, (Rock) [FLAC (image+.cue), lossle ...
  • (1997) Моральный кодекс / Я выбираю тебя (подарочное издание 2007) (Pop-Roc ...
  • (2014) Ozzy Osbourne / Dreamer (Hard Rock, Heavy Metal, Power Ballad) [FLAC ...
  • (2008) Ella Fitzgerald & Louis Armstrong / Autumn In New York (Vocal Jazz) ...
  • (1989) Kaoma / Lambada (lambada / latin / ethnic) [FLAC (image+.cue), lossl ...
  • (2010) Сергей Трофимов (Трофим) / Всё не важно (Шансон) [FLAC(image+.cue), ...
  • (2010) Ассаи / Лифт (Rap) [FLAC(image+.cue), lossless]
  • (2010) A-HA / 25 (2 CD) (Pop) [FLAC (image + .cue)]
  • (2008) Юрий Наумов / Рок как будто Блюз (Blues) [FLAC (Image+.cue), lossles ...
  • (2009) D-Man 55 / 7.62 Б-30 (Rap) [FLAC (image+.cue) lossless]
  • (1996) DJ Dado / The Album (Electronic, Dream trance) [FLAC (image+.сue), l ...
  • (2012) Сергей Васюта и Сладкий Сон / На белом покрывале января... (Pop) [Fl ...
  • (2012, Сборник) VA / Хиты 80-х в Новых Версиях (Pop) [FLAC (image+.cue), lo ...
  • (2011) Sam Levine / Smooth Sax Romance (Smooth Jazz) [FLAC (image+.cue), lo ...
  • (2012, сборник) VA | Горячая 20. Осень-Зима 2012-13 (Pop) [FLAC (image+.cue ...
  • (2012) Jim Brickman / Love (2010) (Piano, Instrumental, New Age) [FLAC (ima ...
  • (1993) Крис Кельми / Greatest Hits (Pop-Rock) [FLAC (image+.cue), lossless] ...
  • (2011) Yanni / Truth Of Touch (New Age) [FLAC (image+ .cue),lossless]
  • ( 2000-2006) PLAZMA / 3 альбома (Pop) [Flac (image+.cue), lossless]
  • (Full Studio Discography, 2011) George Michael (Japan) (Pop) [FLAC (image+. ...
  • (2011) Стас Михайлов / Только ты (Шансон) [Flac(image+.cue)Lossless]
  • (2011) Metallica / Beyond Magnetic (Thrash Metal) [FLAC (image+.cue), lossl ...
  • (2010) Татьяна Буланова / Романсы (Pop) [FLAC (image+.cue), lossless]
  • Информация
    Посетители, находящиеся в группе Гости, не могут оставлять комментарии к данной публикации.