вход на сайт

Имя пользователя :
Пароль :

Восстановление пароля Регистрация
(2006) БумеR (Бумер) / Второй альбом (Шансон) [FLAC (image+.cue)]
Рейтинг:
(голосов: 1)



[img]{THEME}/images/logopost.png[/img]



Исполнитель: БумеR (Бумер)
Альбом: Второй альбом
Тип альбома: Студийный (LP)
Год выпуска: 2006
Жанр: Шансон
Формат: FLAC (image+.cue)
Битрейт: lossless
Продолжительность: 00:48:39

Tреклист:
1. По тайге (5.16)
2. Потерянный край (5.33)
3. Нога (3.53)
4. Когда выходишь ты (5.07)
5. Караван (6.13)
6. Голуби (3.27)
7. Гармошка (4.42)
8. Стакан-игла (4.22)
9. Гастроль (4.43)
10. Натурал (5.23)

Полноразмерная обложка внутри!
Релиз от marksman

Отчет EAC:
▼Exact Audio Copy V0.99 prebeta 3 from 28. July 2007

EAC extraction logfile from 13. September 2008, 9:07

Бумер / Второй альбом

Used drive : TSSTcorpCD/DVDW SH-S182D Adapter: 0 ID: 0

Read mode : Secure
Utilize accurate stream : Yes
Defeat audio cache : Yes
Make use of C2 pointers : No

Read offset correction : 6
Overread into Lead-In and Lead-Out : No
Fill up missing offset samples with silence : Yes
Delete leading and trailing silent blocks : No
Null samples used in CRC calculations : Yes
Used interface : Native Win32 interface for Win NT & 2000

Used output format : Internal WAV Routines
Sample format : 44.100 Hz; 16 Bit; Stereo

TOC of the extracted CD

Track | Start | Length | Start sector | End sector
---------------------------------------------------------
1 | 0:00.00 | 5:16.30 | 0 | 23729
2 | 5:16.30 | 5:33.31 | 23730 | 48735
3 | 10:49.61 | 3:53.02 | 48736 | 66212
4 | 14:42.63 | 5:06.50 | 66213 | 89212
5 | 19:49.38 | 6:13.24 | 89213 | 117211
6 | 26:02.62 | 3:26.52 | 117212 | 132713
7 | 29:29.39 | 4:42.34 | 132714 | 153897
8 | 34:11.73 | 4:22.02 | 153898 | 173549
9 | 38:34.00 | 4:42.68 | 173550 | 194767
10 | 43:16.68 | 5:22.60 | 194768 | 218977

Range status and errors

Selected range

Filename D:Музыка - ШансонLOSSLESSБумер - Второй альбом.wav

Peak level 98.8 %
Range quality 100.0 %
Copy CRC 6721C6F9
Copy OK

No errors occurred

End of status report

Отчет ABC:
▼---------------------------------------------------------
Filename: Бумер - Второй альбом.flac (345.48mb)
Source: CDDA (probability 100%)
Detect Mode : 8
Date: 23.02.2010 03-02-56
---------------------------------------------------------
File Generated by Ape Batch Check 1.4a (build 29.04.2008)

Раздача ночью, в остальное время нестабильна
Приятного прослушивания!


Проверено модератором: GREATNESSS


4052099380cea33ea53f04d43646854e4c2160e6(2006) БумеR (Бумер) / Второй альбом (Шансон) [FLAC (image+.cue)] (2006) БумеR (Бумер) / Второй альбом (Шансон) [FLAC (image+.cue)] " />

Аплоадер: Админ, дата: 23-02-2010, 15:56, торрент скачан: 359 раз

Понравилась раздача? Посмотрите эти:
  • (2013) Мумий Тролль / SOS Матросу - 2013, (Rock) [FLAC (image+.cue), lossle ...
  • (2013) Бумер / Соседка (Шансон) [Mp3 (tracks), 320/CBR]
  • (2002) Urker / Уркер / Made In Kazakhstan (Pop, Ethno) [FLAC (image+.cue), ...
  • (2007) GORILLAZ / D-Sides [Japan Edition] (Hip-Hop) [FLAC (image+cue), loss ...
  • (1975) Pink Floyd / Wish You Were Here (Psychedelic Rock, Art Rock) [FLAC ( ...
  • (1992) Paul Mauriat / Nostaljazz (Instrumental) [FLAC (image+.cue) lossless ...
  • (1989) Kaoma / Lambada (lambada / latin / ethnic) [FLAC (image+.cue), lossl ...
  • (1977) Space / Deliverance (Electronica) [FLAC (image + .cue) lossless]
  • (2010) Сергей Трофимов (Трофим) / Всё не важно (Шансон) [FLAC(image+.cue), ...
  • (2010) Ассаи / Лифт (Rap) [FLAC(image+.cue), lossless]
  • (2010) Виктор Зинчук / Кельтский альбом (Rock) [FLAC (image+.cue), lossless ...
  • (2012) Kreator / Phantom Antichrist (Thrash Metal) [FLAC (image+.cue), loss ...
  • (2011) Yanni / Truth Of Touch (New Age) [FLAC (image+ .cue),lossless]
  • (2011) Linkin Park / Iridescent (Alternative Rock) [FLAC(image+.cue), lossl ...
  • (2011) Стас Михайлов / Только ты (Шансон) [Flac(image+.cue)Lossless]
  • (2011) Rammstein / Mein Land (Neue Deutsche Harte, Industrial, Tanz-Metal) ...
  • (2011) Сурганова & Оркестр / Увидимся скоро (Rock) [FLAC (image+.cue), loss ...
  • (2011) Metallica / Beyond Magnetic (Thrash Metal) [FLAC (image+.cue), lossl ...
  • (2012) Adrenaline Mob / Omerta (Heavy Metal/Progressive/Nu-Metal) [FLAC (im ...
  • (2012) Crippled Black Phoenix / (Mankind) The Crafty Ape (Alternative/Indie ...
  • (2012) Fox / 2012 (Melodic Hard Rock) [FLAC (image +.cue), lossless]
  • (2010) Татьяна Буланова / Романсы (Pop) [FLAC (image+.cue), lossless]
  • (2012) Game Over / For Humanity (Thrash Metal) [FLAC (image+.cue), lossless ...
  • (2011) Lou Reed & Metallica / Lulu (Heavy Metal, Hard Rock) [FLAC (image+.c ...
  • (2010) Punish My Heaven / First Punishment (Melodic Death Metal, Metalcore) ...
  • Информация
    Посетители, находящиеся в группе Гости, не могут оставлять комментарии к данной публикации.