вход на сайт

Имя пользователя :
Пароль :

Восстановление пароля Регистрация
(3 CD) Петлюра (Юрий Барабаш) (Шансон) [FLAC(image+.cue), lossless]
Рейтинг:
(голосов: 1)



[img]{THEME}/images/logopost.png[/img]



3 CD
Исполнитель: Петлюра (Юрий Барабаш)
Жанр: Шансон
Формат: FLAC+.сue
Битрейт: lossless
Продолжительность: 02:02:48

Об исполнителе: Петлюра (Юрий Барабаш) родился в Ставрополье 14 апреля 1974 года. Первый альбом "Споем, жиган" в 1993 году, как и следующий "Налетчик Беня" 1994 года записывались в домашней студии. Когда появилась возможность переписать песни на более профессиональном оборудовании, было решено, что Петлюра перепоет некоторые песни с первых альбомов. Кроме того, подобрали и записали еще несколько композиций. Так появился альбом "Малолетка".
В ночь с 27 на 28 сентября 1996 года Петлюра погиб в автокатастрофе. Юрий Барабаш похоронен на Хованском кладбище в городе Москве.

Скорый поезд▼

Тип альбома: Студийный (LP)
Год выпуска: 1996
Формат: FLAC+.сue
Битрейт: lossless
Продолжительность: 00:44:14

Tреклист:
[03:18] 01. Петлюра - Скорый поезд
[03:44] 02. Петлюра - В старой церквушке
[03:34] 03. Петлюра - Блудница
[03:15] 04. Петлюра - Облака
[03:57] 05. Петлюра - Как служил солдат
[03:42] 06. Петлюра - Наташка
[03:07] 07. Петлюра - Долгая разлука
[03:49] 08. Петлюра - Люди помогите
[03:41] 09. Петлюра - Люблю тебя
[04:34] 10. Петлюра - Я опускаюсь на колени
[04:18] 11. Петлюра - Дочь прокурора
[03:15] 12. Петлюра - Не надо

Отчет EAC:
▼Exact Audio Copy V0.99 prebeta 5 from 4. May 2009

Отчёт EAC об извлечении, выполненном 10. июля 2009, 9:27

Петлюра / Скорый поезд

Дисковод: TSSTcorpCDDVDW SH-S223F Adapter: 2ID: 0

Режим чтения : Достоверность
Использование точного потока : Да
Отключение кэша аудио: Да
Использование указателей C2: Нет

Коррекция смещения при чтении : 6
Способность читать области Lead-in и Lead-out : Нет
Заполнение пропущенных сэмплов тишиной: Да
Удаление блоков с тишиной в начале и конце: Нет
При вычислениях CRC использовались нулевые сэмплы : Да
Интерфейс : Встроенный Win32-интерфейс для Win NT/2000

Выходной формат : Внутренние WAV-операции
Формат сэмплов: 44.100 Гц; 16 бит; стерео


TOC извлечённого CD

Трек | Старт| Длительность | Начальный сектор | Конечный сектор
---------------------------------------------------------------------
1|0:00.10 |3:21.35 |10|15119
2|3:21.45 |3:43.42 | 15120|31886
3|7:05.12 |3:34.40 | 31887|47976
4| 10:39.52 |3:14.03 | 47977&nb
5ff0c6d743d59b2782af984b611ca9b1a3ac94ed(3 CD) Петлюра (Юрий Барабаш) (Шансон) [FLAC(image+.cue), lossless] (3 CD) Петлюра (Юрий Барабаш) (Шансон) [FLAC(image+.cue), lossless] " />

Аплоадер: Админ, дата: 18-02-2010, 04:39, торрент скачан: 359 раз

Понравилась раздача? Посмотрите эти:
  • (2011) Виктор Петлюра / Grand Collection (Шансон) [MP3, 320 / CBR]
  • (2008) Виктор Петлюра / Берег (Шансон) [mp3, 320/CBR]
  • (2013) Виктор Петлюра / Два полюса (Шансон) [mp3, 320/CBR]
  • Виктор Петлюра / Два полюса [2013, Шансон, WebRip]
  • (1995) Петлюра и гр. Пацаны - Песни нашего двора 1 (Шансон) [mp3 128-320CBR ...
  • (Сборник, 2007-2009) VA / Коллекция русского шансона «ЗВЁЗДНАЯ СЕРИЯ. 20 Лу ...
  • (Сборник, 2009) VA / Серия «Гранды шансона»: Самые хитовые хиты (5 CD) (Шан ...
  • (Сборник, 2007-2010) VA / Блатные & Лирика (12 CD) (Шансон) [FLAC (image+.c ...
  • Виктор Петлюра / Седой [2006, Шансон, DVD5]
  • Петлюра Скорый поезд (1996,TV-Rip)
  • (Дискография) ПЕТЛЮРА (шансон) [mp3 128-192CBR]
  • (1995-2001) ПЕТЛЮРА (Юрий Барабаш) (Шансон) [MP3 128/224CBR]
  • (2008) ВИКТОР ПЕТЛЮРА - Берег (Шансон) [Mp3 320CBR]
  • (2010) Петлюра / Лирика (Шансон) [Mp3, 320 kbps/CBR]
  • (2010) Петлюра / Жиганские (Шансон) [MP3, 320 kbps/CBR]
  • (2011) Виктор Петлюра / Дембельский аккорд (Шансон) [ MP3 , 320 kbps /CBR]
  • (2011, сборник) Виктор Петлюра / 50 Лучших песен (Шансон) [MP3, 320/CBR]
  • (2009, сборник) VA / Любимой Женщине (душевный) (Шансон) [FLAC (image+.сue) ...
  • (2012) Петлюра / Исповедь Вора (Лучшие Песни) (Шансон) [MP3, 320/CBR]
  • (2012) Виктор Петлюра / Ключи от рая (Шансон) [MP3, 320/CBR]
  • Информация
    Посетители, находящиеся в группе Гости, не могут оставлять комментарии к данной публикации.