вход на сайт

Имя пользователя :
Пароль :

Восстановление пароля Регистрация
(2010) Мафик / Ангел (Шансон) [FLAC(image+cue), lossless]
Рейтинг:
(голосов: 1)



[img]{THEME}/images/logopost.png[/img]



Исполнитель: Мафик
Альбом: Ангел
Тип альбома: ОФициальный альбом
Год выпуска: 2010
Жанр: Шансон
Формат: FLAC+.сue
Битрейт: lossless
Log-файл: Присутствует
Продолжительность: 00:51:47

Tреклист:
[03:36] 01. Мафик - Ангел
[03:47] 02. Мафик - Жулик
[03:51] 03. Мафик - Слово Пацана
[04:25] 04. Мафик - Тигренок
[04:36] 05. Мафик - Твой
[03:56] 06. Мафик - Малика
[03:22] 07. Мафик - Несознанка
[03:22] 08. Мафик - В Законе
[03:26] 09. Мафик - Первоходы
[03:40] 10. Мафик - Примета Добра
[03:36] 11. Мафик - Красота
[03:24] 12. Мафик - Кризис
[03:38] 13. Мафик - Производственный Рэп
[03:08] 14. Мафик - Моя Москва


Отчет EAC:
▼Exact Audio Copy V0.99 prebeta 5 from 4. May 2009

Отчёт EAC об извлечении, выполненном 28. декабря 2009, 0:25

Мафик / Ангел

Дисковод: Optiarc DVD RW AD-7173S Adapter: 3ID: 0

Режим чтения : Достоверность
Использование точного потока : Да
Отключение кэша аудио: Да
Использование указателей C2: Нет

Коррекция смещения при чтении : 48
Способность читать области Lead-in и Lead-out : Нет
Заполнение пропущенных сэмплов тишиной: Да
Удаление блоков с тишиной в начале и конце: Нет
При вычислениях CRC использовались нулевые сэмплы : Да
Интерфейс : Установленный внешний ASPI-интерфейс

Выходной формат: Пользовательский кодировщик
Выбранный битрейт: 128 kBit/s
Качество : Высокий
Добавление ID3-тэга: Нет
Утилита сжатия : C:Program FilesExact Audio CopyFLACFLAC.EXE
Дополнительные параметры : -8 -V -T "ARTIST=%a" -T "TITLE=%t" -T "ALBUM=%g" -T "DATE=%y" -T "TRACKNUMBER=%n" -T "GENRE=%m" -T "COMMENT=%e" %s -o %d


TOC извлечённого CD

Трек | Старт| Длительность | Начальный сектор | Конечный сектор
---------------------------------------------------------------------
1|0:00.00 |3:38.47 | 0|16396
2|3:38.47 |3:46.59 | 16397|33405
3|7:25.31 |3:50.30 | 33406|50685
4| 11:15.61 |4:25.36 | 50686|70596
&n
a5615de914204d633525db177691106b432d53a9(2010) Мафик / Ангел (Шансон) [FLAC(image+cue), lossless] (2010) Мафик / Ангел (Шансон) [FLAC(image+cue), lossless] " />

Аплоадер: Админ, дата: 15-01-2010, 01:30, торрент скачан: 359 раз

Понравилась раздача? Посмотрите эти:
  • (2013) Мафик / Пацанский стиль (Шансон) [MP3, 320 kbps/ CBR]
  • (2013) Мафик / Пацанский стиль (Шансон) [MP3, 320 kbps/ CBR]
  • (1993) Coverdale & Page / Coverdale & Page (EMI Holland)(Hard Rock) [FLAC ( ...
  • (2010) Мафик / Песни высшей пробы (Шансон) [Mp3, 320/CBR]
  • (2012) Григорий Лепс / Полный вперёд (Шансон) [FLAC (image+.cue), Lossless ...
  • Мафик - 3 альбома(2005-2007)[256 kBit/s]
  • (2009) СЕРГЕЙ НАГОВИЦЫН / The Best Of - 2009 (Шансон) [FLAC (image+.cue) lo ...
  • (1999) Ennio Morricone / Romantic Collection (Classical) [FLAC (image+.cue) ...
  • (1988) James Last / Romantic Love Songs (Instrumental) [FLAC (image+.cue) l ...
  • (2006) Tokio / puls 200 (Alternative Rock / Pop Rock) [FLAC (image+.cue) lo ...
  • (2010) Loc-Dog / Паранойя (Rap) [FLAC (track+.cue), lossless]
  • (2010) БИ-2 / О чём говорят мужчины (Pop-Rock) [FLAC (image + .cue), lossle ...
  • (2011) Легенды Про / Желтый Дом (Rap) [FLAC (tracks+.cue), Lossless]
  • (2004) Genesis / Platinum Collection (Art Rock) [FLAC (image+.cue), lossles ...
  • (1997) Jazz Cafe / Simple Pleasures (Jazz, instrumental) [FLAC (image+.сue ...
  • (Дискография, 2006-2011) Светлана Копылова (Православная песня) [FLAC (imag ...
  • (2012) The Blues Overdrive / The Blues Overdrive (Blues-Rock) [FLAC (image+ ...
  • (Сборник, 2007-2009) VA / Коллекция русского шансона «ЗВЁЗДНАЯ СЕРИЯ. 20 Лу ...
  • (Сборник, 2007-2010) VA / Блатные & Лирика (12 CD) (Шансон) [FLAC (image+.c ...
  • (2008) МАФИК - Хочуха (Шансон) [MP3, 320kbps CBR, Stereo]
  • (2006) УЛЫТАУ / ULYTAU - Жумыр-Кылыш / Jumyr-Kylysh (ethnic / folk metal / ...
  • Мафик / Птицы [2007, Шансон, DVDRip]
  • (2010) 25/17 (Иезекииль 25:17, Ант, Бледный) / Зебра (Rap) [FLAC (tracks+.c ...
  • (2012) Денис Мафик / New - 2012 (Шансон) [MP3, 320/CBR]
  • (2012) Денис Мафик / Босота (Шестой альбом) (Шансон) [MP3, 320/CBR]
  • Информация
    Посетители, находящиеся в группе Гости, не могут оставлять комментарии к данной публикации.