вход на сайт

Имя пользователя :
Пароль :

Восстановление пароля Регистрация
(2007) СТАС МИХАЙЛОВ - Лучшие песни (Шансон) [APE (image + .cue) lossless]
Рейтинг:
(голосов: 1)



[img]{THEME}/images/logopost.png[/img]



Исполнитель: Стас Михайлов
Альбом: Лучшие песни
Год выпуска: 2007
Жанр: Шансон
Формат: APE (image+.сue)
Битрейт: lossless
Продолжительность: 01:17:42

Tрэклист:▼
01. Всё для тебя (03:55)
02. Мама (новая песня) (03:26)
03. Свеча (03:56)
04. Без тебя (04:20)
05. Отпускаю (03:43)
06. Не вдвоем (03:56)
07. Париж, Париж (03:57)
08. Серый дождь (неизданная песня) (04:11)
09. Жизнь обман (03:58)
10. Берега мечты (радиоверсия) (03:53)
11. Птица (птицей раненой) (04:05)
12. Половинка (03:20)
13. Знай об этом (03:40)
14. К тебе иду (04:27)
15. Зубудь (03:55)
16. Война (03:47)
17. Живу и таю (03:53)
18. Ну, вот и все (04:05)
19. Приказ (03:34)
20. Дети (неизданная песня) (03:31)

Log EAC:▼
Exact Audio Copy V0.99 prebeta 3 from 28. July 2007
Отчёт EAC об извлечении, выполненном 6. ноября 2007, 18:56
Стас Михайлов / Лучшие песни
Дисковод: Optiarc DVD RW AD-7173S Adapter: 6ID: 0
Режим чтения : Достоверность
Использование точного потока : Да
Отключение кэша аудио: Да
Использование указателей C2: Нет
Коррекция смещения при чтении : 48
Способность читать области Lead-in и Lead-out : Нет
Заполнение пропущенных сэмплов тишиной: Да
Удаление блоков с тишиной в начале и конце: Нет
При вычислениях CRC использовались нулевые сэмплы : Да
Интерфейс : Встроенный Win32-интерфейс для Win NT/2000
Выходной формат : Monkeys Audio Lossless Encoder v3.99 DLL
Формат сэмплов: Normal Lossless Compression
TOC извлечённого CD
Трек | Старт| Длительность | Начальный сектор | Конечный сектор
---------------------------------------------------------------------
1|0:00.00 |3:55.16 | 0|17640
2|3:55.16 |3:26.52 | 17641|33142
3|7:21.68 |3:56.60 | 33143|50902
4| 11:18.53 |4:20.71 | 50903|70473
5| 15:39.49 |3:43.59 | 70474|87257
6| 19:23.33 |3:56.30 | 87258| 104987
7| 23:19.63 |3:57.68 |104988|&
c1c8bf3e2f33dada7b7d28151cadf29c1a2929a3(2007) СТАС МИХАЙЛОВ - Лучшие песни (Шансон) [APE (image + .cue) lossless] (2007) СТАС МИХАЙЛОВ - Лучшие песни (Шансон) [APE (image + .cue) lossless] " />

Аплоадер: Админ, дата: 24-09-2009, 02:19, торрент скачан: 359 раз

Понравилась раздача? Посмотрите эти:
  • (2012) Григорий Лепс / Полный вперёд (Шансон) [FLAC (image+.cue), Lossless ...
  • (2009) СЕРГЕЙ НАГОВИЦЫН / The Best Of - 2009 (Шансон) [FLAC (image+.cue) lo ...
  • (2000) Tic Tac Toe / Ist der Ruf erst ruiniert... (Rap,Hip-hop) [Lossless, ...
  • (2008) НоГГано / Первый (Rap) [APE(image+cue), lossless]
  • (2010) Мафик / Ангел (Шансон) [FLAC(image+cue), lossless]
  • (2007) Morandi / N3xt (Pop) [APE, (image + .cue), lossless]
  • (2006) Батырхан Шукенов/ Отан Ана (Pop) [FLAC (image+.cue) lossless]
  • (1981) Boney M / Christmas Album (UnRemaster) (Disco) [APE (image + .cue), ...
  • (1985) BABYS GANG / Challenger (Pop,Italo Disco) [APE(image+.cue)lossless] ...
  • (2007) Хор Турецкого / Великая Музыка (2CD) (Choir, Folk, Aсapella) [FLAC ( ...
  • (2003) THE BLACK EYED PEAS / Elephunk (RnB) [Ape (image+.cue), lossless]
  • Стас Михайлов / Все для тебя (2007)
  • (2007) ЛАСКОВЫЙ МАЙ - Лучшие Песни. Твоя Коллекция (2CD) (Pop) [FLAC (image ...
  • (1993) Любовь Успенская / Любимый (шансон) [APE (image+.cue), lossless]
  • (2010) Стас Михайлов / Живи и Знай (Шансон) [MP3, 320 / CBR ]
  • (2010) Стас Михайлов / Живи и Знай (Шансон) [MP3, 320 / CBR ]
  • (2009) Челси / Точка возврата (Pop) [APE (image+.cue), lossless]
  • (2006) Би-2 / Лучшие песни (Rock) [FLAC (image+.cue), lossless]
  • (2011) N1NT3NDO / N1NT3NDO (Rap) [APE (image+.сue), lossless]
  • (2010) Александр Серов / Лучшие песни (серия «НОВАЯ КОЛЛЕКЦИЯ») (Pop) [Flac ...
  • (2009, сборник) VA / Любимой Женщине (душевный) (Шансон) [FLAC (image+.сue) ...
  • (2008) Студия 80 / Придуманный Мир (Pop) [FLAC (image+.cue), lossless]
  • (2011) Стас Михайлов / Стас Михайлов - 50 лучших песен (Шансон) [MP3, 320/ ...
  • (2012) Денис Майданов / Лучшие песни (Серия "Музыка на почте") (Шансон) [FL ...
  • (2012) Стас Михайлов / Я открою своё сердце (Шансон) [FLAC (image+.cue), lo ...
  • Информация
    Посетители, находящиеся в группе Гости, не могут оставлять комментарии к данной публикации.