вход на сайт

Имя пользователя :
Пароль :

Восстановление пароля Регистрация
(2012) Григорий Лепс / Полный вперёд (Шансон) [FLAC (image+.cue), Lossless]
Рейтинг:
(голосов: 1)



[img]{THEME}/images/logopost.png[/img]



Исполнитель: Григорий Лепс
Страна: Россия
Альбом: Полный вперёд
Тип альбома: Студийный
Год выпуска: 2012
Жанр: Шансон
Аудиокодек: FLAC
Тип рипа: image+.cue
Битрейт: lossless
Продолжительность: 00:44:07


Tреклист:
01. Люди (Полный вперед!) (3:57)
02. Безопасность(3:18)
03. Запой (3:43)
04. Он был старше её(3:58)
05. Ранняя тишина (4:06)
06. Водопадом (4:20)
07. Лондон * дуэт с Тимати(4:24)
08. Я счастливый(3:58)
09. Где-то за тучами(3:58)
10. Судьба-зима (4:30)
11. Се ля ви(3:56)


Лог создания рипа ▼TextExact Audio Copy V0.99 prebeta 4 from 23. January 2008

Отчёт EAC об извлечении, выполненном 2. января 2013, 16:35

Григорий Лепс / Полный вперед!

Дисковод: ASUS DRW-1814BLT Adapter: 5 ID: 0

Режим чтения : Достоверность
Использование точного потока : Да
Отключение кэша аудио : Да
Использование указателей C2 : Нет

Коррекция смещения при чтении : 6
Способность читать области Lead-in и Lead-out : Нет
Заполнение пропущенных сэмплов тишиной : Да
Удаление блоков с тишиной в начале и конце : Нет
При вычислениях CRC использовались нулевые сэмплы : Да
Интерфейс : Установленный внешний ASPI-интерфейс

Выходной формат : Внутренние WAV-операции
Формат сэмплов : 44.100 Гц; 16 бит; стерео


TOC извлечённого CD

Трек | Старт | Длительность | Начальный сектор | Конечный сектор
---------------------------------------------------------------------
1 | 0:00.00 | 3:57.02 | 0 | 17776
2 | 3:57.02 | 3:18.30 | 17777 | 32656
3 | 7:15.32 | 3:42.51 | 32657 | 49357
4 | 10:58.08 | 3:57.58 | 49358 | 67190
5 | 14:55.66 | 4:06.35 | 67191 | 85675
6 | 19:02.26 | 4:19.65 | 85676 | 105165
7 | 23:22.16 | 4:24.29 | 105166 | 124994
8 | 27:46.45 | 3:57.47 | 124995 | 142816
&nbs
c23ea6e7cdac9156d6812ef51aef9def40d57cca(2012) Григорий Лепс / Полный вперёд (Шансон) [FLAC (image+.cue), Lossless] (2012) Григорий Лепс / Полный вперёд (Шансон) [FLAC (image+.cue), Lossless] " />

Аплоадер: Админ, дата: 9-02-2013, 01:09, торрент скачан: 359 раз

Понравилась раздача? Посмотрите эти:
  • (2000) Lenny Kravitz / Greatest Hits (Rock, Funk) [FLAC (image+.cue), lossl ...
  • (2002) a-ha / Lifelines (Alternative Rock, Synth-pop ) [FLAC (image + .cue ...
  • Григорий Лепс / Полный Вперед! [2013, Pop, Rock, DVDRip]
  • (2013) Валерий Войт и группа Первомайка / Под стук колёс (Шансон) [FLAC (im ...
  • (2009) СЕРГЕЙ НАГОВИЦЫН / The Best Of - 2009 (Шансон) [FLAC (image+.cue) lo ...
  • (2000) Tic Tac Toe / Ist der Ruf erst ruiniert... (Rap,Hip-hop) [Lossless, ...
  • (2010) Мафик / Ангел (Шансон) [FLAC(image+cue), lossless]
  • (1994) Joy / Grand Collection (EuroDisco) [FLAC (image+.cue) lossless]
  • (2006) Батырхан Шукенов/ Отан Ана (Pop) [FLAC (image+.cue) lossless]
  • (2011) Within Temptation / The Unforgiving (Symphonic Gothic Metal) [FLAC ( ...
  • (2011) Blues Cousins / KGB Blues (Blues Rock) [FLAC (image+.cue), lossless] ...
  • (2012) Serebro / Mama Lover (Монолит) (Pop) [FLAC (image+.cue), lossless]
  • (2012) Григорий Лепс / Полный вперед (Шансон) [mp3, 320 kbps /CBR]
  • (2001) Катя Огонёк / Дорожный роман (Шансон) [FLAC (image+.cue)]
  • (1993) Любовь Успенская / Любимый (шансон) [APE (image+.cue), lossless]
  • (2010) Lara Fabian / The Best of (2CD Limited Edition) (Pop) [Flac(image+.c ...
  • (Дискография, 2005-2008) Ёлка (R&B, Reggae, Pop) [APE (image+.cue); FLAC (i ...
  • (1995) Юрий Шатунов / Ты помнишь... (Pop) [FLAC(image+.cue), lossless]
  • (1988) Fausto Papetti / Grand Collection (POP, Jazz) [FLAC (image+.cue), lo ...
  • (2000) Парк Горького (Gorky Park) / The Best (Glam Metal/Hard Rock) [FLAC ...
  • (2004) Ex-Сектор Газа / Огненный рай (Punk-Rock) [FLAC (image+.cue), lossle ...
  • (2008) Студия 80 / Придуманный Мир (Pop) [FLAC (image+.cue), lossless]
  • (2012) Иван Кучин / Золотые хиты (Chanson) [FLAC (image+.cue), lossless]
  • (2012) Иван Кучин / Небесные цветы (Chanson) [FLAC (image+.cue), lossless]
  • (2012) Стас Михайлов / Я открою своё сердце (Шансон) [FLAC (image+.cue), lo ...
  • Информация
    Посетители, находящиеся в группе Гости, не могут оставлять комментарии к данной публикации.