вход на сайт

Имя пользователя :
Пароль :

Восстановление пароля Регистрация
(2013) Валерий Войт и группа Первомайка / Под стук колёс (Шансон) [FLAC (image+.cue), lossless]
Рейтинг:
(голосов: 1)



[img]{THEME}/images/logopost.png[/img]



Исполнитель:Валерий Войт и группа Первомайка
Страна:Россия
Альбом:Под стук колёс
Тип альбома:Студийный
Год выпуска:2013
Жанр:Шансон
Год первоначального издания альбома: 2012
Страна (Издатель, Каталожный номер): Россия (Студия КОРЕШ)
Аудиокодек: FLAC (*.flac)
Тип рипа: image+.cue
Битрейт: lossless
Продолжительность: 00:53:09

Tреклист:
01. Муза в лагерях - 03:34
02. Первомаечка родная - 03:43
03. Про брата - 02:38
04. Музыка моя - 02:56
05. Привет, Инская ! - 02:53
06. Свадьба в суде - 02:52
07. Миг удачи - 03:59
08. Я сказал тебе - пошли на север - 04:18
09. Попутным экипажем - 03:00
10. Край загадочный - 03:08
11. Мечтать не вредно - 04:03
12. Танечка - 03:11
13. Вот приходит осень - 02:51
14. Вагончик за вагончиком - 02:47
15. Милая Лариса - 04:09
16. На судьбу роптать не буду - 03:00

Лог создания рипа ▼TextExact Audio Copy V1.0 beta 3 from 29. August 2011

Отчёт EAC об извлечении, выполненном 1. марта 2013, 10:33

Валерий Войт и группа Первомайка / Под стук колёс

Дисковод: Optiarc DVD RW AD-7170A Adapter: 4 ID: 0

Режим чтения : Достоверность
Использование точного потока : Да
Отключение кэша аудио : Да
Использование указателей C2 : Нет

Коррекция смещения при чтении : 48
Способность читать области Lead-in и Lead-out : Нет
Заполнение пропущенных сэмплов тишиной : Да
Удаление блоков с тишиной в начале и конце : Нет
При вычислениях CRC использовались нулевые сэмплы : Да
Интерфейс : Встроенный Win32-интерфейс для Win NT/2000

Выходной формат : Внутренние WAV-операции
Формат сэмплов : 44.100 Гц; 16 бит; стерео

TOC извлечённого CD

Трек | Старт | Длительность | Начальный сектор | Конечный сектор
---------------------------------------------------------------------
1 | 0:00.00 | 3:34.17 | 0 | 16066
2 | 3:34.17 | 3:43.55 | 16067 | 32846
3 | 7:17.72 | 2:38.19 | 32847 | 44715
4 | 9:56.16 | 2:56.18 | 44716 | 57933
5 | 12:52.34 | 2:53.54 | 57934 | 70962
6 | 15:46.13 | 2:52.27 | 70963 | 83889
7 | 18:38.40 | 3:59.19 | 83890 | 101833
8 | 22:37.59 | 4:18.19 | 101834 | 121202
9 | 26:56.03 | 3:00.40 | 121203 | 134742
10 | 29:56.43 | 3:08.54 | 134743 | 148896
11 | 33:05.22 | &n
331a797d27415e83aa0a99cf8e4933284d584a19(2013) Валерий Войт и группа Первомайка / Под стук колёс (Шансон) [FLAC (image+.cue), lossless] (2013) Валерий Войт и группа Первомайка / Под стук колёс (Шансон) [FLAC (image+.cue), lossless] " />

Аплоадер: Админ, дата: 6-03-2013, 09:32, торрент скачан: 359 раз

Понравилась раздача? Посмотрите эти:
  • (2000) Lenny Kravitz / Greatest Hits (Rock, Funk) [FLAC (image+.cue), lossl ...
  • (2002) a-ha / Lifelines (Alternative Rock, Synth-pop ) [FLAC (image + .cue ...
  • (2013) Al Di Meola / All Your Life (Fusion) [FLAC (image+.cue), lossless]
  • (1995) Corona / The Rhythm Of The Night (Japan) (Eurodance) [FLAC (image+. ...
  • (2013) МакSим (Максим) / Другая реальность (Рор) [FLAC (image+.cue), lossle ...
  • (2013) Krokus / Dirty Dynamite (Hard Rock) [FLAC (image+.cue), lossless]
  • (2012) Григорий Лепс / Полный вперёд (Шансон) [FLAC (image+.cue), Lossless ...
  • (2009) СЕРГЕЙ НАГОВИЦЫН / The Best Of - 2009 (Шансон) [FLAC (image+.cue) lo ...
  • (2010) Мафик / Ангел (Шансон) [FLAC(image+cue), lossless]
  • (2006) Батырхан Шукенов/ Отан Ана (Pop) [FLAC (image+.cue) lossless]
  • (2011) Within Temptation / The Unforgiving (Symphonic Gothic Metal) [FLAC ( ...
  • (2011) Blues Cousins / KGB Blues (Blues Rock) [FLAC (image+.cue), lossless] ...
  • (2012) Serebro / Mama Lover (Монолит) (Pop) [FLAC (image+.cue), lossless]
  • ( 2001) Воскресение / Звездная коллекция (Rock) [FLAC (image+.cue) lossless ...
  • (2001) Катя Огонёк / Дорожный роман (Шансон) [FLAC (image+.cue)]
  • (1995) Yaki-Da / Pride (Pop, Eurodance) [FLAC (image+.сue), lossless]
  • (2004) Ex-Сектор Газа / Огненный рай (Punk-Rock) [FLAC (image+.cue), lossle ...
  • (2008) Студия 80 / Придуманный Мир (Pop) [FLAC (image+.cue), lossless]
  • (2012) Иван Кучин / Небесные цветы (Chanson) [FLAC (image+.cue), lossless]
  • (2012) Стас Михайлов / Я открою своё сердце (Шансон) [FLAC (image+.cue), lo ...
  • Информация
    Посетители, находящиеся в группе Гости, не могут оставлять комментарии к данной публикации.