вход на сайт

Имя пользователя :
Пароль :

Восстановление пароля Регистрация
(2012) Стас Михайлов / Я открою своё сердце (Шансон) [FLAC (image+.cue), lossless]
Рейтинг:
(голосов: 1)



[img]{THEME}/images/logopost.png[/img]



Исполнитель: Стас Михайлов
Альбом: Я открою своё сердце
Тип альбом: Live
Год выпуска:2012
Жанр:Шансон
Страна (Издатель, Каталожный номер):RU(Квадро-Диск, 4606344029453)
Аудиокодек: FLAC (*.flac)
Тип рипа: image+.cue
Битрейт: lossless
Лог файлы: присутствуют
Наличие сканов в содержимом раздачи: Есть
Продолжительность: 00:53:54

Wikipedia | Official page | Last.fm | Facebook

Об исполнителе: Стас Михайлов - российский эстрадный певец, автор песен, заслуженный артист Российской Федерации (2010). Лауреат премий «Шансон Года» в номинации «Артист года» (Радио Шансон), «Золотой Граммофон» (Русское радио) и фестиваля «Песня года».

Tреклист:
01. Intro (4:26)
02. Я вижу пустоту (5:29)
03. Я к вечности шагаю (4:17)
04. Жене (3:36)
05. За воротами времени (3:37)
06. Живу и таю (4:17)
07. Почти устал (4:37)
08. Пресвятая Богородица (6:20)
09. Серый дождь (4:45)
10. Ах, как хочется ещё пожить (3:42)
11. Я люблю под вечер помечтать (4:02)
12. Уходим понемногу (4:47)

Лог создания рипа ▼Text
Exact Audio Copy V1.0 beta 3 from 29. August 2011

Отчёт EAC об извлечении, выполненном 28. ноября 2012, 19:12

Стас Михайлов / Я открою свое сердце

Дисковод: ASUS DRW-1814BLT Adapter: 2 ID: 0

Режим чтения : Достоверность
Использование точного потока : Да
Отключение кэша аудио : Да
Использование указателей C2 : Нет

Коррекция смещения при чтении : 6
Способность читать области Lead-in и Lead-out : Нет
Заполнение пропущенных сэмплов тишиной : Да
Удаление блоков с тишиной в начале и конце : Нет
При вычислениях CRC использовались нулевые сэмплы : Да
Интерфейс : Встроенный Win32-интерфейс для Win NT/2000

Выходной формат : Внутренние WAV-операции
Формат сэмплов : 44.100 Гц; 16 бит; стерео


TOC извлечённого CD

Трек | Старт | Длительность | Начальный сектор | Конечный сектор
---------------------------------------------------------------------
1 | 0:00.00 | 4:25.69 | 0 | 19943
2 | 4:25.69 | 5:28.62 | 19944 | 44605
3 | 9:54.56 | 4:17.37 | 44606 | 63917
4 | 14:12.18 | 3:35.57 | 63918 | 80099
5 | 17:48.00 | 3:36.66 | 80100 | 96365
6 | 21:24.66 | 4:16.58 | 96366 | 115623
7 | 25:41.49 | 4:37.22 | 115624 | 136420
8 | 30:18.71 | 6:19.45 | 136421 | 164890
9&nb
94c1ef0833197f65196546cf661056913b84584e(2012) Стас Михайлов / Я открою своё сердце (Шансон) [FLAC (image+.cue), lossless] (2012) Стас Михайлов / Я открою своё сердце (Шансон) [FLAC (image+.cue), lossless] " />

Аплоадер: Админ, дата: 30-11-2012, 21:06, торрент скачан: 359 раз

Понравилась раздача? Посмотрите эти:
  • (2000) Lenny Kravitz / Greatest Hits (Rock, Funk) [FLAC (image+.cue), lossl ...
  • (2002) a-ha / Lifelines (Alternative Rock, Synth-pop ) [FLAC (image + .cue ...
  • (2013) Валерий Войт и группа Первомайка / Под стук колёс (Шансон) [FLAC (im ...
  • (2012) Григорий Лепс / Полный вперёд (Шансон) [FLAC (image+.cue), Lossless ...
  • (2007) СТАС МИХАЙЛОВ - Лучшие песни (Шансон) [APE (image + .cue) lossless]
  • (2009) СЕРГЕЙ НАГОВИЦЫН / The Best Of - 2009 (Шансон) [FLAC (image+.cue) lo ...
  • (2010) Мафик / Ангел (Шансон) [FLAC(image+cue), lossless]
  • (3 CD) Петлюра (Юрий Барабаш) (Шансон) [FLAC(image+.cue), lossless]
  • (2006) Батырхан Шукенов/ Отан Ана (Pop) [FLAC (image+.cue) lossless]
  • (Сборник, 2011) VA / Аллея шансона. Музыкальная коллекция МК (35 CD) (Шанс ...
  • (2001) Катя Огонёк / Дорожный роман (Шансон) [FLAC (image+.cue)]
  • (2011) Стас Михайлов / Вечная любовь(Шансон) [MP3, 320 kbps/CBR]
  • (2011) Стас Михайлов / Только ты (Шансон) [Mp3, 320/CBR]
  • (2011) Стас Михайлов / Ты меня не отпускай (Шансон) [мр3, 320/CBR]
  • (2009) Стас Михайлов / Золотые хиты (Шансон) [МР3, 320 kbps/CBR]
  • Стас Михайлов / Я открою свое сердце. Новый концерт Стаса Михайлова [2012, ...
  • Стас Михайлов / Я открою свое сердце [2012, Шансон, SATRip]
  • (2012) Стас Михайлов / Я открою своё сердце (Шансон) [MP3, 192 / CBR]
  • (2009, сборник) VA / Любимой Женщине (душевный) (Шансон) [FLAC (image+.сue) ...
  • (1995) Yaki-Da / Pride (Pop, Eurodance) [FLAC (image+.сue), lossless]
  • (2008) Студия 80 / Придуманный Мир (Pop) [FLAC (image+.cue), lossless]
  • (2011) Стас Михайлов / Стас Михайлов - 50 лучших песен (Шансон) [MP3, 320/ ...
  • (2012) Денис Майданов / Лучшие песни (Серия "Музыка на почте") (Шансон) [FL ...
  • (2012) Елена Ваенга / Лена (Шансон) [FLAC (image+.cue), lossless]
  • (2012) Стас Михайлов / Я открою свое сердце (Шансон) [MP3, 320/CBR]
  • Информация
    Посетители, находящиеся в группе Гости, не могут оставлять комментарии к данной публикации.