вход на сайт

Имя пользователя :
Пароль :

Восстановление пароля Регистрация
(2012) Денис Майданов / Лучшие песни (Серия "Музыка на почте") (Шансон) [FLAC (image+.cue), lossless]
Рейтинг:
(голосов: 1)



[img]{THEME}/images/logopost.png[/img]



Исполнитель: Денис Майданов
Страна: Россия
Альбом: Лучшие песни (Серия "Музыка на почте")
Тип альбома: Студийный
Год выпуска: 2012
Жанр: Шансон
Страна (Издатель, Каталожный номер): Россия (Moroz Rec., MR 11061 CD)
Аудиокодек: FLAC (*.flac)
Тип рипа: image+.cue
Битрейт: lossless
Log-файл: Присутствует.
Наличие сканов в содержимом раздачи: Да. (PNG, 900DPI, 145MB)
Продолжительность: 00:59:51

Об исполнителе: Майданов, Денис Васильевич (род. 17 февраля 1976, Балаково) — российский композитор, поэт, актёр, музыкальный продюсер, автор и исполнитель собственных песен. Лауреат фестиваля "Песня года", обладатель премии "Золотой Граммофон". Широкую публичную известность приобрел с выходом первого собственного альбома «Я буду знать, что ты любишь меня… Вечная любовь» (1 июня 2009 года).

Tреклист:
01. Денис Майданов - Ничего не жаль (03:45)
02. Денис Майданов - Пуля (04:24)
03. Денис Майданов - Дай мне огонь (04:07)
04. Денис Майданов - Я богат (03:49)
05. Денис Майданов - Молодым умирать не страшно (03:27)
06. Денис Майданов - Растают следы (05:33)
07. Денис Майданов - Арендованный мир (04:32)
08. Денис Майданов - Дом (04:06)
09. Денис Майданов - 1000 лет (04:02)
10. Денис Майданов - Не может быть (05:24)
11. Денис Майданов - Бесконечная молодость (03:59)
12. Денис Майданов - Я верю в любовь (04:25)
13. Денис Майданов - Время - наркотик (04:14)
14. Денис Майданов - Вечная любовь [DJ Amareta remix] (03:59)

Лог создания рипа (EAC log) ▼TextExact Audio Copy V1.0 beta 2 from 29. April 2011

Отчёт EAC об извлечении, выполненном 13. февраля 2012, 16:48

Денис Майданов / Серия «Музыка на почте» - Лучшие песни

Дисковод: Optiarc DVD RW AD-7190A Adapter: 0 ID: 0

Режим чтения : Достоверность
Использование точного потока : Да
Отключение кэша аудио : Да
Использование указателей C2 : Нет

Коррекция смещения при чтении : 6
Способность читать области Lead-in и Lead-out : Нет
Заполнение пропущенных сэмплов тишиной : Да
Удаление блоков с тишиной в начале и конце : Нет
При вычислениях CRC использовались нулевые сэмплы : Да
Интерфейс : Встроенный Win32-интерфейс для Win NT/2000

Выходной формат : Внутренние WAV-операции
Формат сэмплов : 44.100 Гц; 16 бит; стерео

TOC извлечённого CD

Трек | Старт | Длительность | Начальный сектор | Конечный сектор
---------------------------------------------------------------------
1 | 0:00.00 | 3:45.57 | 0 | 16931
2 | 3:45.57 | 4:24.63 | 16932 | 36794
3 | 8:10.45 | 4:07.02 | 36795 | 55321
4 | 12:17.47 | 3:49.03 | 55322 | 72499
5 | 16:06.50 | 3:27.21 | 72500 | 88045
6 | 19:33.71 | 5:33.33 | 88046 | 113053
7 | 25:07.29 | 4:32.02 |
eb6cdf75b57fa92d3f9752d6b0059b77b339b3de(2012) Денис Майданов / Лучшие песни (Серия "Музыка на почте") (Шансон) [FLAC (image+.cue), lossless] (2012) Денис Майданов / Лучшие песни (Серия "Музыка на почте") (Шансон) [FLAC (image+.cue), lossless] " />

Аплоадер: Админ, дата: 3-11-2012, 15:38, торрент скачан: 359 раз

Понравилась раздача? Посмотрите эти:
  • Денис Майданов / 48 часов [2013, Pop, WebRip]
  • (2013) Валерий Войт и группа Первомайка / Под стук колёс (Шансон) [FLAC (im ...
  • (2012) Григорий Лепс / Полный вперёд (Шансон) [FLAC (image+.cue), Lossless ...
  • (2007) СТАС МИХАЙЛОВ - Лучшие песни (Шансон) [APE (image + .cue) lossless]
  • (2012) The Blues Overdrive / The Blues Overdrive (Blues-Rock) [FLAC (image+ ...
  • Денис Майданов / Вечная любовь (2009)
  • (Дискография, 2009-2012) Денис Майданов (Pop, Шансон) [Mp3 (tracks), 320/CB ...
  • (2009) Денис Майданов / Я Буду Знать, Что Ты Любишь Меня (Pop) [MP3 ~190VBR ...
  • (2009) Денис Майданов / Вечная Любовь (Pop) [MP3 320 CBR]
  • Денис Майданов / Время-наркотик [2010, Pop, PDTVRip]
  • Денис Майданов / Я возвращаюсь домой. Вечная любовь [2011, Шансон, Концерт, ...
  • (Дискография) Денис Майданов (Pop) [MP3, 320/CBR]
  • (2011) VA / Золотая лирика (Шансон) [MP3, 320kbps /CBR]
  • (2012) Денис Майданов / Лучшие песни (Серия "Музыка на почте") (Шансон) [MP ...
  • (2010) Александр Серов / Лучшие песни (серия «НОВАЯ КОЛЛЕКЦИЯ») (Pop) [Flac ...
  • (2012) Денис Мафик / New - 2012 (Шансон) [MP3, 320/CBR]
  • (2012) Денис Мафик / Босота (Шестой альбом) (Шансон) [MP3, 320/CBR]
  • Денис Майданов / Пролетая над нами [2012, Pop, WebRip]
  • (2012) Елена Ваенга / Лена (Шансон) [FLAC (image+.cue), lossless]
  • (2012) Стас Михайлов / Я открою своё сердце (Шансон) [FLAC (image+.cue), lo ...
  • Информация
    Посетители, находящиеся в группе Гости, не могут оставлять комментарии к данной публикации.