вход на сайт

Имя пользователя :
Пароль :

Восстановление пароля Регистрация
(2012) Иван Кучин / Небесные цветы (Chanson) [FLAC (image+.cue), lossless]
Рейтинг:
(голосов: 1)



[img]{THEME}/images/logopost.png[/img]



Исполнитель: Иван Кучин
Страна: Россия
Альбом: Небесные цветы
Тип альбома: Студийный
Год выпуска: 2012
Жанр: Chanson
Аудиокодек: FLAC (*.flac)
Тип рипа: image+.cue
Битрейт: lossless
Продолжительность: 00:51:11

Tреклист:

01. Иван Кучин - Верба [03:37]
02. Иван Кучин - Ёжик [03:45]
03. Иван Кучин - Караван [03:58]
04. Иван Кучин - Прости-прощай [03:22]
05. Иван Кучин - Бывший зек [03:55]
06. Иван Кучин - Колокола [04:03]
07. Иван Кучин - Эх, было время! [03:21]
08. Иван Кучин - А в кабаке [04:20]
09. Иван Кучин - Народный суд [03:55]
10. Иван Кучин - Конь гнедой [04:22]
11. Иван Кучин - Мамины слёзы [04:20]
12. Иван Кучин - Чёрная женщина [04:22]
13. Иван Кучин - Бандитский нож (RMX) [03:45]

Лог создания рипа ▼TextExact Audio Copy V1.0 beta 1 from 15. November 2010

Отчёт EAC об извлечении, выполненном 10. июня 2012, 16:59

Иван Кучин / Небесные цветы

Дисковод: _NEC DV-5800E Adapter: 0 ID: 1

Режим чтения : Достоверность
Использование точного потока : Да
Отключение кэша аудио : Да
Использование указателей C2 : Нет

Коррекция смещения при чтении : 6
Способность читать области Lead-in и Lead-out : Нет
Заполнение пропущенных сэмплов тишиной : Да
Удаление блоков с тишиной в начале и конце : Нет
При вычислениях CRC использовались нулевые сэмплы : Да
Интерфейс : Установленный внешний ASPI-интерфейс

Выходной формат : Внутренние WAV-операции
Формат сэмплов : 44.100 Гц; 16 бит; стерео

TOC извлечённого CD

Трек | Старт | Длительность | Начальный сектор | Конечный сектор
---------------------------------------------------------------------
1 | 0:00.00 | 3:37.57 | 0 | 16331
2 | 3:37.57 | 3:45.28 | 16332 | 33234
3 | 7:23.10 | 3:58.00 | 33235 | 51084
4 | 11:21.10 | 3:22.60 | 51085 | 66294
5 | 14:43.70 | 3:55.40 | 66295 | 83959
6 | 18:39.35 | 4:03.39 | 83960 | 102223
7 | 22:42.74 | 3:21.57 | 102224 | 117355
8 | 26:04.56 | 4:20.17 | 117356 | 136872
9 | 30:24.73 | 3:55.46 | 136873 | 154543
10 | 34:20.44 | 4:22.43 | 154544 | 174236
11 | 38:43.12 | 4:20.63 | 174237 | 193799
12 | 43:04.00 | 4:22.18 &nb
6e95b736bdb63d0edd1a76df69e4d55b8f5d6763(2012) Иван Кучин / Небесные цветы (Chanson) [FLAC (image+.cue), lossless] (2012) Иван Кучин / Небесные цветы (Chanson) [FLAC (image+.cue), lossless] " />

Аплоадер: Админ, дата: 17-07-2012, 21:35, торрент скачан: 359 раз

Понравилась раздача? Посмотрите эти:
  • (2000) Lenny Kravitz / Greatest Hits (Rock, Funk) [FLAC (image+.cue), lossl ...
  • (2011) Иван Кучин / Золотая коллекция - Лучшее (2 CD) (Шансон) [MP3, 320 / ...
  • (2012) Григорий Лепс / Полный вперёд (Шансон) [FLAC (image+.cue), Lossless ...
  • (1994) Joy / Grand Collection (EuroDisco) [FLAC (image+.cue) lossless]
  • (2006) Батырхан Шукенов/ Отан Ана (Pop) [FLAC (image+.cue) lossless]
  • (2011) Within Temptation / The Unforgiving (Symphonic Gothic Metal) [FLAC ( ...
  • (Сборник, 2001-2009) VA / Серия "Легенды жанра" (41 CD) (Шансон) [FLAC (ima ...
  • (Сборник, 2007-2012) VA / Золотой шансон (6CD) (Шансон) [FLAC (image+.cue), ...
  • (10 альбомов) Иван Кучин (Шансон) [Mp3, 320/CBR]
  • (1994) Иван Кучин / Летят года (Шансон) [MP3, 128/CBR]
  • (2000) Иван Кучин / Я пишу тебе мама (Шансон) [MP3, 192/CBR]
  • Иван Кучин / Человек в телогрейке [2008, шансон, CamRip]
  • Иван Кучин / Человек в телогрейке (Живой концерт) [2007, Шансон, DVD-5]
  • (2011, сборник) Иван Кучин / Аллея шансона. Музыкальная коллекция МК (Шансо ...
  • (2011) Иван Кучин / Романсы (Шансон) [мр3, 320/CBR]
  • (2011-2012, Сборник) VA / Серия - Романсы (14CD) (Шансон) [MP3, 320/CBR]
  • (2009, сборник) VA / Любимой Женщине (душевный) (Шансон) [FLAC (image+.сue) ...
  • (1995) Yaki-Da / Pride (Pop, Eurodance) [FLAC (image+.сue), lossless]
  • (Дискография, 1987-2004) Иван Кучин (Русский шансон, Авторская песня) [FLAC ...
  • (2008) Студия 80 / Придуманный Мир (Pop) [FLAC (image+.cue), lossless]
  • (2012) Иван Кучин / Золотые хиты (Шансон) [mp3, 320/CBR]
  • (2012) Иван Кучин / Золотые хиты (Chanson) [FLAC (image+.cue), lossless]
  • (2012, Сборник) VA / Годы Молодые. Хиты шансона (2 CD) Шансон) [mp3 (track ...
  • (2012) Иван Кучин / Небесные цветы (Шансон) [MP3, 320/CBR]
  • (2012, Сборник) VA / 3D Коллекция (6 CD) (Шансон) [MP3, 320/CBR]
  • Информация
    Посетители, находящиеся в группе Гости, не могут оставлять комментарии к данной публикации.