вход на сайт

Имя пользователя :
Пароль :

Восстановление пароля Регистрация
(2012) Иван Кучин / Золотые хиты (Chanson) [FLAC (image+.cue), lossless]
Рейтинг:
(голосов: 1)



[img]{THEME}/images/logopost.png[/img]



Исполнитель: Иван Кучин
Страна: Россия
Альбом: Золотые хиты
Тип альбома: Compilation
Год выпуска: 2012
Жанр: Chanson
Аудиокодек: FLAC (*.flac)
Тип рипа: image+.cue
Битрейт: lossless
Продолжительность: 01:12:20

Tреклист:
01. Роза на крови [03:18]
02. За здоровье, за моё [02:47]
03. Друг [03:58]
04. Колечко [03:26]
05. Багульник [03:46]
06. Портрет [03:56]
07. Ах, январь мой [03:21]
08. Заряженный наган [03:02]
09. Обыкновенная [03:42]
10. Декабрьский друг [04:03]
11. Серое платье [03:43]
12. Совесть [03:00]
13. Барыня [03:47]
14. Черноокая [03:08]
15. Спящий зверь [03:46]
16. До свидания, друг [04:04]
17. А на чёрных ресницах [03:23]
18. Хрустальная ваза [05:38]
19. Гимназисточка [03:52]
20. Конь вороной [03:33]

Лог создания рипа ▼TextExact Audio Copy V1.0 beta 1 from 15. November 2010

Отчёт EAC об извлечении, выполненном 27. мая 2012, 15:34

Иван Кучин / Золотые хиты

Дисковод: _NEC DV-5800E Adapter: 0 ID: 1

Режим чтения : Достоверность
Использование точного потока : Да
Отключение кэша аудио : Да
Использование указателей C2 : Нет

Коррекция смещения при чтении : 6
Способность читать области Lead-in и Lead-out : Нет
Заполнение пропущенных сэмплов тишиной : Да
Удаление блоков с тишиной в начале и конце : Нет
При вычислениях CRC использовались нулевые сэмплы : Да
Интерфейс : Установленный внешний ASPI-интерфейс

Выходной формат : Внутренние WAV-операции
Формат сэмплов : 44.100 Гц; 16 бит; стерео

TOC извлечённого CD

Трек | Старт | Длительность | Начальный сектор | Конечный сектор
---------------------------------------------------------------------
1 | 0:00.00 | 3:18.18 | 0 | 14867
2 | 3:18.18 | 2:47.64 | 14868 | 27456
3 | 6:06.07 | 3:58.29 | 27457 | 45335
4 | 10:04.36 | 3:26.04 | 45336 | 60789
5 | 13:30.40 | 3:46.03 | 60790 | 77742
6 | 17:16.43 | 3:56.01 | 77743 | 95443
7 | 21:12.44 | 2:21.49 | 95444 | 106067
8 | 23:34.18 | 3:02.34 | 106068 | 119751
9 | 26:36.52 | 3:42.33 | 119752 | 136434
10 | 30:19.10 | 4:03.46 | 136435 | 154705
11 | 34:22.56 | 3:43.53 | 154706 | 171483
12 | 38:06.34 | 3:00.48 |
b990b4518f43e1e259ad6940b94f9ce6fcd6b9f0(2012) Иван Кучин / Золотые хиты (Chanson) [FLAC (image+.cue), lossless] (2012) Иван Кучин / Золотые хиты (Chanson) [FLAC (image+.cue), lossless] " />

Аплоадер: Админ, дата: 17-07-2012, 20:53, торрент скачан: 359 раз

Понравилась раздача? Посмотрите эти:
  • (2000) Lenny Kravitz / Greatest Hits (Rock, Funk) [FLAC (image+.cue), lossl ...
  • (1993) Coverdale & Page / Coverdale & Page (EMI Holland)(Hard Rock) [FLAC ( ...
  • (2002) a-ha / Lifelines (Alternative Rock, Synth-pop ) [FLAC (image + .cue ...
  • (1995) Corona / The Rhythm Of The Night (Japan) (Eurodance) [FLAC (image+. ...
  • (2013) Аркадий Северный и ансамбль «Четыре брата и лопата» / Концерт памяти ...
  • (2012) Григорий Лепс / Полный вперёд (Шансон) [FLAC (image+.cue), Lossless ...
  • (2010) Мафик / Ангел (Шансон) [FLAC(image+cue), lossless]
  • (1994) Joy / Grand Collection (EuroDisco) [FLAC (image+.cue) lossless]
  • (2006) Батырхан Шукенов/ Отан Ана (Pop) [FLAC (image+.cue) lossless]
  • (2011) Within Temptation / The Unforgiving (Symphonic Gothic Metal) [FLAC ( ...
  • (2011) Blues Cousins / KGB Blues (Blues Rock) [FLAC (image+.cue), lossless] ...
  • (2012) Serebro / Mama Lover (Монолит) (Pop) [FLAC (image+.cue), lossless]
  • ( 2001) Воскресение / Звездная коллекция (Rock) [FLAC (image+.cue) lossless ...
  • (2010) Lara Fabian / The Best of (2CD Limited Edition) (Pop) [Flac(image+.c ...
  • (Дискография, 2005-2008) Ёлка (R&B, Reggae, Pop) [APE (image+.cue); FLAC (i ...
  • (1995) Юрий Шатунов / Ты помнишь... (Pop) [FLAC(image+.cue), lossless]
  • (1988) Fausto Papetti / Grand Collection (POP, Jazz) [FLAC (image+.cue), lo ...
  • (2009, сборник) VA / Любимой Женщине (душевный) (Шансон) [FLAC (image+.сue) ...
  • (1995) Yaki-Da / Pride (Pop, Eurodance) [FLAC (image+.сue), lossless]
  • (2000) Парк Горького (Gorky Park) / The Best (Glam Metal/Hard Rock) [FLAC ...
  • (2004) Ex-Сектор Газа / Огненный рай (Punk-Rock) [FLAC (image+.cue), lossle ...
  • (2008) Студия 80 / Придуманный Мир (Pop) [FLAC (image+.cue), lossless]
  • (2012) Иван Кучин / Золотые хиты (Шансон) [mp3, 320/CBR]
  • (2012) Русский стилль / Ты позови меня... (Pop) [FLAC (image+.cue), lossles ...
  • (2012) Иван Кучин / Небесные цветы (Chanson) [FLAC (image+.cue), lossless]
  • Информация
    Посетители, находящиеся в группе Гости, не могут оставлять комментарии к данной публикации.