вход на сайт

Имя пользователя :
Пароль :

Восстановление пароля Регистрация
(2009, сборник) VA / Любимой Женщине (душевный) (Шансон) [FLAC (image+.сue), lossless]
Рейтинг:
(голосов: 1)



[img]{THEME}/images/logopost.png[/img]



Сборник
Исполнитель: VA
Название сборника: Любимой женщине-(душевный).
Год выпуска: 2009
Жанр: Шансон
Формат: FLAC (image+.сue)
Битрейт: lossless
Продолжительность: 01:18:23

Tреклист:
01.Виктор Королев -- Душа (3:36)
02.гр. Белый день -- Свекровушка (3:17)
03.Ирина Круг и Леонид Телешев -- Дорога от души к душе (3:58)
04.Виктор Петлюра -- Ты замужем (4:02)
05.Иван Кучин -- Багульник (3:46)
06.Трофим -- Голуби (4:20)
07.Таня Тишинская -- Взрослое кино (3:06)
08.гр. Белорусские песняры и Валерий Дайнеко -- Только позови (3:39)
09.Братья Радченко -- Трава-мурава (4:46)
10.Вика Цыганова -- Гроздья рябины (4:31)
11.Марк Винокуров -- Юлька (3:49)
12.Анатолий Днепров -- Не предавай (2:59)
13.Анатолий Полотно -- Колечко (5:18)
14.гр. Адреналин -- В сторону света (4:15)
15.Федя Карманов -- К тебе (4:20)
16.гр. Адреналин -- Королева города (4:01)
17.Сергей Любавин -- Я пьян от любви (3:19)
18.Михаил Михайлов -- Назову тебя любимой (3:34)
19.Владимир Черняков и Марина Александрова -- Сладкий яд (3:31)
20.Михаил Шелег -- Любимой женщине (4:15)

Лог создания рипа ▼Exact Audio Copy V0.99 prebeta 5 from 4. May 2009

Отчёт EAC об извлечении, выполненном 23. сентября 2010, 18:40

Various / Любимой женщине - Душевный

Дисковод: ASUSDRW-1814BLT Adapter: 2ID: 0

Режим чтения : Достоверность
Использование точного потока : Да
Отключение кэша аудио: Да
Использование указателей C2: Нет

Коррекция смещения при чтении : 6
Способность читать области Lead-in и Lead-out : Нет
Заполнение пропущенных сэмплов тишиной: Да
Удаление блоков с тишиной в начале и конце: Нет
При вычислениях CRC использовались нулевые сэмплы : Да
Интерфейс : Встроенный Win32-интерфейс для Win NT/2000

Выходной формат : Внутренние WAV-операции
Формат сэмплов: 44.100 Гц; 16 бит; стерео


TOC извлечённого CD

Трек | Старт| Длительность | Начальный сектор | Конечный сектор
---------------------------------------------------------------------
1|0:00.00 |3:35.58 | 0|16182
2|3:35.58 |3:16.49 | 16183|30931
3|6:52.32 |3:57.43 | 30932|48749
4| 10:50.00 |4:02.15 | 48750|66914
5| 14:52.15 |
c74b207d17a60aee3386de4732902c2c51ce1826(2009, сборник) VA / Любимой Женщине (душевный) (Шансон) [FLAC (image+.сue), lossless] (2009, сборник) VA / Любимой Женщине (душевный) (Шансон) [FLAC (image+.сue), lossless] " />

Аплоадер: Админ, дата: 9-04-2012, 22:02, торрент скачан: 359 раз

Понравилась раздача? Посмотрите эти:
  • (2000) Lenny Kravitz / Greatest Hits (Rock, Funk) [FLAC (image+.cue), lossl ...
  • (2002) a-ha / Lifelines (Alternative Rock, Synth-pop ) [FLAC (image + .cue ...
  • (2013) Валерий Войт и группа Первомайка / Под стук колёс (Шансон) [FLAC (im ...
  • (2012) Григорий Лепс / Полный вперёд (Шансон) [FLAC (image+.cue), Lossless ...
  • (2007) СТАС МИХАЙЛОВ - Лучшие песни (Шансон) [APE (image + .cue) lossless]
  • (2009) СЕРГЕЙ НАГОВИЦЫН / The Best Of - 2009 (Шансон) [FLAC (image+.cue) lo ...
  • (2000) Tic Tac Toe / Ist der Ruf erst ruiniert... (Rap,Hip-hop) [Lossless, ...
  • (2010) Мафик / Ангел (Шансон) [FLAC(image+cue), lossless]
  • (3 CD) Петлюра (Юрий Барабаш) (Шансон) [FLAC(image+.cue), lossless]
  • (1994) Joy / Grand Collection (EuroDisco) [FLAC (image+.cue) lossless]
  • (2006) Батырхан Шукенов/ Отан Ана (Pop) [FLAC (image+.cue) lossless]
  • (2011) Within Temptation / The Unforgiving (Symphonic Gothic Metal) [FLAC ( ...
  • (2011) Blues Cousins / KGB Blues (Blues Rock) [FLAC (image+.cue), lossless] ...
  • ( 2001) Воскресение / Звездная коллекция (Rock) [FLAC (image+.cue) lossless ...
  • (2001) Катя Огонёк / Дорожный роман (Шансон) [FLAC (image+.cue)]
  • (3 CD) VA / Любимой женщине (Шансон) [MP3, 320/CBR]
  • (1993) Любовь Успенская / Любимый (шансон) [APE (image+.cue), lossless]
  • (1988) Fausto Papetti / Grand Collection (POP, Jazz) [FLAC (image+.cue), lo ...
  • (1995) Yaki-Da / Pride (Pop, Eurodance) [FLAC (image+.сue), lossless]
  • (2000) Парк Горького (Gorky Park) / The Best (Glam Metal/Hard Rock) [FLAC ...
  • (2004) Ex-Сектор Газа / Огненный рай (Punk-Rock) [FLAC (image+.cue), lossle ...
  • (2008) Студия 80 / Придуманный Мир (Pop) [FLAC (image+.cue), lossless]
  • (2012) Иван Кучин / Золотые хиты (Chanson) [FLAC (image+.cue), lossless]
  • (2012) Иван Кучин / Небесные цветы (Chanson) [FLAC (image+.cue), lossless]
  • (2012) Стас Михайлов / Я открою своё сердце (Шансон) [FLAC (image+.cue), lo ...
  • Информация
    Посетители, находящиеся в группе Гости, не могут оставлять комментарии к данной публикации.