вход на сайт

Имя пользователя :
Пароль :

Восстановление пароля Регистрация
(2011) Григорий Лепс / Пенсне (переиздание) (Шансон) [FLAC (tracks+.cue), lossless]
Рейтинг:
(голосов: 1)



[img]{THEME}/images/logopost.png[/img]



Исполнитель: Григорий Лепс
Альбом: Пенсне (переиздание)
Страна: Россия
Тип альбома: Студийный "Мистерия Рекордс"
Год выпуска: 2011
Жанр: Шансон
Формат:FLAC (tracks+.cue)
Битрейт: lossless
Продолжительность: 00:58:16

Tреклист:
[04:24] 01. Научись летать
[04:41] 02. Вавилон
[03:29] 03. Клуб одиноких сердец подполковника Пеппера
[05:08] 04. Двое у окна
[03:31] 05. Настоящая женщина
[03:59] 06. Зима
[03:42] 07. Черная кошка
[03:31] 08. Зачем тебе я?
[04:03] 09. Самый лучший день
[04:18] 10. Самый лучший день (Radio Edit)
[05:28] 11. Спасибо, ребята (Военная)
[03:51] 12. Обернитесь (дуэт с В. Меладзе)
[03:46] 13. Измены (дуэт с В. Ильинской)
[04:25] 14. Птица-молодость моя (дуэт с Д. Гурцкая)

Лог создания рипа ▼Exact Audio Copy V1.0 beta 2 from 29. April 2011

EAC extraction logfile from 18. December 2011, 22:44

Григорий Лепс / Пенсне (Переиздание)

Used drive: ASUSSDRW-08D2S-U Adapter: 0ID: 0

Read mode : Secure
Utilize accurate stream : Yes
Defeat audio cache: Yes
Make use of C2 pointers : No

Read offset correction: 103
Overread into Lead-In and Lead-Out: No
Fill up missing offset samples with silence : Yes
Delete leading and trailing silent blocks : No
Null samples used in CRC calculations : Yes
Used interface: Installed external ASPI interface
Gap handling: Appended to previous track

Used output format: User Defined Encoder
Selected bitrate: 1024 kBit/s
Quality : High
Add ID3 tag : No
Command line compressor : C: Program Files (x86)Exact Audio CopyFlacflac.exe
Additional command line options : -8 -V -T "ARTIST=%albumartist%" -T "TITLE=%title%" -T "ALBUM=%albumtitle%" -T "DATE=%year%" -T "TRACKNUMBER=%tracknr%" -T "GENRE=%genre%" -T "COMMENT=EAC FLAC -8" %source%


TOC of the extracted CD

Track | Start|Length| Start sector | End sector
---------------------------------------------------------
1|0:00.00 |4:24.53 | 0|19852
2|4:24.53 |4:41.72 | 19853|40999
3|9:06.50 |3:29.31 | 41000|56705
4| 12:36.06 |
a478e9485da53c8d50e42d7ef2f5d62a0a07d44a(2011) Григорий Лепс / Пенсне (переиздание) (Шансон) [FLAC (tracks+.cue), lossless] (2011) Григорий Лепс / Пенсне (переиздание) (Шансон) [FLAC (tracks+.cue), lossless] " />

Аплоадер: Админ, дата: 2-04-2012, 00:14, торрент скачан: 359 раз

Понравилась раздача? Посмотрите эти:
  • (2010)Scorpions/Sting In The Tail [FLAC (tracks+cue), lossless]
  • (2010) Deftones / Diamond Eyes (Nu metal / Alternative) [FLAC, (tracks+ cu ...
  • (2008) Pink / Funhouse (Pop) [FLAC (tracks) lossless]
  • (2010) Michael Jackson - Michael (Pop) [FLAC, (tracks+.cue), lossless]
  • (2010) Нюша / Выбирать чудо (Pop) [FLAC(tracks+.cue), lossless]
  • (2006) DMX / Year Of The Dog...Again (EU) (Rap) [FLAC (tracks)]
  • (2011) Red Hot Chili Peppers / Im With You (Alternative Rock/Funk) [FLAC (t ...
  • (2011) Coldplay / Mylo Xyloto (Alternative Rock) [FLAC (tracks+.cue), lossl ...
  • (2011, сборник) ATB / Greatest Hits (Trance) [FLAC (tracks+.сue), lossless] ...
  • (2012) Yiruma / Stay In Memory (New Age, Instrumental, Neoclassical, Piano) ...
  • (2012, Сборник) VA / Saxophone Golden Best (Jazz, Smooth Jazz) [FLAC (track ...
  • (2010) Rihanna / Loud (R&B) [FLAC (tracks+.cue), lossless]
  • (2011) Nero / Welcome Reality (Dubstep / House / Drum & Bass) [FLAC (tracks ...
  • (2011) Electric Universe / Higher Modes (Psytrance, Full On) [FLAC (tracks+ ...
  • (2011) Нигатив (Триада) / Точка Опоры. Черный Том (Rap) [FLAC (tracks+cue)l ...
  • (2011) Evanescence / Evanescence (Alternative Rock) [FLAC (tracks+.cue), lo ...
  • (2012) The Cranberries / Roses (Alternative Rock / Pop-Rock) [FLAC (tracks+ ...
  • (2011) SeeS / The enD (Progressive/Math Metal) [FLAC (tracks+.cue), lossles ...
  • (2012) Our Lady Peace / Curve (Alternative/Rock) [FLAC (tracks+.cue), lossl ...
  • (2011) The Browning / Burn This World (Deathcore/Electronic) [FLAC (tracks+ ...
  • (2011) Святослав Вакарчук (Океан Эльзы) / Брюссель (Rock/Soft Rock) [FLAC ( ...
  • (2012) Thousand Foot Krutch / The End Is Where We Begin (Christian/Alt.Rock ...
  • (2012) KoRn feat. Skrillex / Chaos Lives In Everything (UK Promo) (Nu-metal ...
  • (2011) Phinehas / Thegodmachine (Metalcore) [FLAC (tracks+.cue), lossless]
  • (2011) Ink Stained Promises / Relations. (Metalcore, Hardcore) [FLAC (track ...
  • Информация
    Посетители, находящиеся в группе Гости, не могут оставлять комментарии к данной публикации.