вход на сайт

Имя пользователя :
Пароль :

Восстановление пароля Регистрация
(Дискография, 2001-2011) Аня Воробей (Шансон) [FLAC (image+.cue), lossless]
Рейтинг:
(голосов: 1)



[img]{THEME}/images/logopost.png[/img]



Исполнитель: Аня Воробей и гр. "Рок-Острова"
Страна: Россия
Жанр: Шансон
Официальная страничка: Аня Воробей

Формат: FLAC (image+.сue)
Битрейт: lossless
Продолжительность: 14:07:33

Об исполнителе:Молодая певица, уроженка города Ворсма Нижегородской области. Закончила профессиональное музыкальное училище по классу аккордеона. Поёт с детства. Работала с Владимиром Захаровым.
С 2000 года сотрудничает с компанией «Союз Продакшн». Прошла большой тендер на главную роль в аудиосериале «Котуйская история». После исполнения первых строчек первой песни сразу же была утверждена. С компанией выпустила несколько сольных альбомов. Безвозмездно ездила в благотворительные туры по лагерям и тюрьмам России, принимает активнейшее участие в движении «Калина Красная».

Треклист:

Аня Воробей & группа "Рок-Острова" - Аудиосериал "Котуйская история" ▼2001 - Часть 1. Ворона ▼
Продолжительность: 00:42:35
Трэклист:
01. Ворона (4:42)
02. Расконвойный (5:14)
03. Встреча (3:41)
04. Побег (4:30)
05. Иван (3:44)
06. Осень на Севере (2:42)
07. Волки (5:20)
08. Рождественский снег (3:48)
09. Разговор с сыном (3:34)
10. Колыбельная (1:58)
11. Встреча (Сон) (3:23)

Отчет EAC ▼Exact Audio Copy V0.99 prebeta 4 from 23. January 2008

Отчёт EAC об извлечении, выполненном 5. марта 2009, 13:46

Кот.история / Ворона

Дисковод: Optiarc DVD RW AD-5170A Adapter: 0ID: 0

Режим чтения : Достоверность
Использование точного потока : Да
Отключение кэша аудио: Да
Использование указателей C2: Нет

Коррекция смещения при чтении : 48
Способность читать области Lead-in и Lead-out : Нет
Заполнение пропущенных сэмплов тишиной: Да
Удаление блоков с тишиной в начале и конце: Нет
При вычислениях CRC использовались нулевые сэмплы : Да
Интерфейс : Установленный внешний ASPI-интерфейс

Выходной формат : Внутренние WAV-операции
Формат сэмплов: 44.100 Гц; 16 бит; стерео

TOC извлечённого CD

Трек | Старт| Длительность | Начальный сектор | Конечный сектор
---------------------------------------------------------------------
1|0:00.00 |4:42.19 | 0|21168
2|4:42.19 |5:13.39 | 21169|44682
3|9:55.58 |3:40.74 | 44683|61256
4| 13:36.57 |4:29.40 | 61257|81471
5| 18:06.22 |3:43.38 | 81472&nb
fb3814335fe885e4fd0c99c87f5f8e44d8c06d96(Дискография, 2001-2011) Аня Воробей (Шансон) [FLAC (image+.cue), lossless] (Дискография, 2001-2011) Аня Воробей (Шансон) [FLAC (image+.cue), lossless] " />

Аплоадер: Админ, дата: 11-03-2012, 23:05, торрент скачан: 359 раз

Понравилась раздача? Посмотрите эти:
  • (2012) Григорий Лепс / Полный вперёд (Шансон) [FLAC (image+.cue), Lossless ...
  • (дискография, 1983-2008) MADONNA (pop / dance) [WavPack (image+.cue) lossle ...
  • (2009) СЕРГЕЙ НАГОВИЦЫН / The Best Of - 2009 (Шансон) [FLAC (image+.cue) lo ...
  • (2000) Tic Tac Toe / Ist der Ruf erst ruiniert... (Rap,Hip-hop) [Lossless, ...
  • (2010) Мафик / Ангел (Шансон) [FLAC(image+cue), lossless]
  • (3 CD) Петлюра (Юрий Барабаш) (Шансон) [FLAC(image+.cue), lossless]
  • (1994) Joy / Grand Collection (EuroDisco) [FLAC (image+.cue) lossless]
  • (2006) Батырхан Шукенов/ Отан Ана (Pop) [FLAC (image+.cue) lossless]
  • (1984) Boney M / Ten Thousand Lightyears (Disco) [APE (image+.cue) lossles ...
  • (2011) Within Temptation / The Unforgiving (Symphonic Gothic Metal) [FLAC ( ...
  • (Дискография) The Doors (Classic Rock) [FLAC(tracks,image+.cue),APE(image+. ...
  • (2011) Blues Cousins / KGB Blues (Blues Rock) [FLAC (image+.cue), lossless] ...
  • (Дискография, 2006-2011) Светлана Копылова (Православная песня) [FLAC (imag ...
  • (Дискография, 1986 - 1999) Crimson Glory (Progressive Heavy Metal) [FLAC (i ...
  • (2009) Rihanna / Rated R (R`n`B) [APE (image+.cue)]
  • ( 2001) Воскресение / Звездная коллекция (Rock) [FLAC (image+.cue) lossless ...
  • (2001) Катя Огонёк / Дорожный роман (Шансон) [FLAC (image+.cue)]
  • (1993) Любовь Успенская / Любимый (шансон) [APE (image+.cue), lossless]
  • (2010) Lara Fabian / The Best of (2CD Limited Edition) (Pop) [Flac(image+.c ...
  • (Дискография, 2005-2008) Ёлка (R&B, Reggae, Pop) [APE (image+.cue); FLAC (i ...
  • (1988) Fausto Papetti / Grand Collection (POP, Jazz) [FLAC (image+.cue), lo ...
  • (1995) Yaki-Da / Pride (Pop, Eurodance) [FLAC (image+.сue), lossless]
  • (2004) Ex-Сектор Газа / Огненный рай (Punk-Rock) [FLAC (image+.cue), lossle ...
  • (2008) Студия 80 / Придуманный Мир (Pop) [FLAC (image+.cue), lossless]
  • (2012) Иван Кучин / Небесные цветы (Chanson) [FLAC (image+.cue), lossless]
  • Информация
    Посетители, находящиеся в группе Гости, не могут оставлять комментарии к данной публикации.