вход на сайт

Имя пользователя :
Пароль :

Восстановление пароля Регистрация
(2011) Стас Михайлов / Только ты (Шансон) [Flac(image+.cue)Lossless]
Рейтинг:
(голосов: 1)



[img]{THEME}/images/logopost.png[/img]



Исполнитель: Стас Михайлов
Альбом: Только ты
Тип альбома: Live
Год выпуска: 2011
Жанр: Шансон
Формат: FLAC (image+.cue)
Битрейт: lossless
Продолжительность: 00:51:37

Tреклист:
01] Веди меня, бог мой 4:59
02] Непрощенный 3:04
03] Кате... 3:50
04] Солдат 3:54
05] Если бы не ты 3:58
06] Есенину 3:37
07] Русь 3:50
08] Спаси меня 4:29
09] Ты моя 4:24
10] Просто любить 4:10
11] Женщина-вамп 3:21
12] А может быть 4:21
13] Только ты 3:40

"Отчет EAC" ▼Exact Audio Copy V1.0 beta 2 from 29. April 2011

EAC extraction logfile from 28. June 2011, 22:58

Стас Михайлов / Только ты...

Used drive: PIONEER DVD-RWDVR-212 Adapter: 8ID: 0

Read mode : Secure
Utilize accurate stream : Yes
Defeat audio cache: Yes
Make use of C2 pointers : No

Read offset correction: 48
Overread into Lead-In and Lead-Out: No
Fill up missing offset samples with silence : Yes
Delete leading and trailing silent blocks : No
Null samples used in CRC calculations : Yes
Used interface: Installed external ASPI interface

Used output format : Internal WAV Routines
Sample format: 44.100 Hz; 16 Bit; Stereo


TOC of the extracted CD

Track | Start|Length| Start sector | End sector
---------------------------------------------------------
1|0:00.00 |4:58.38 | 0|22387
2|4:58.38 |3:03.60 | 22388|36172
3|8:02.23 |3:49.38 | 36173|53385
4| 11:51.61 |3:54.08 | 53386|70943
5| 15:45.69 |3:57.60 | 70944|88778
6| 19:43.54 |3:37.23 | 88779| 105076
7| 23:21.02 |3:50.23 |105077| 122349
8| 27:11.25 |4:29.15 |122350| 142539
9| 31:40.40 |4:23.60 |142540| 162324
10| 36:04.25 |4:10.15 |162325| 181089
11| 40:14.40 |3:21.00 |&nb
24c67197ad6d691c857fffc3f7ce0215b419b652(2011) Стас Михайлов / Только ты (Шансон) [Flac(image+.cue)Lossless] (2011) Стас Михайлов / Только ты (Шансон) [Flac(image+.cue)Lossless] " />

Аплоадер: Админ, дата: 1-08-2011, 21:02, торрент скачан: 359 раз

Понравилась раздача? Посмотрите эти:
  • (1989) Kaoma / Lambada (lambada / latin / ethnic) [FLAC (image+.cue), lossl ...
  • (2010) Сергей Трофимов (Трофим) / Всё не важно (Шансон) [FLAC(image+.cue), ...
  • (2010) Ассаи / Лифт (Rap) [FLAC(image+.cue), lossless]
  • (2007) Константин Никольский / Иллюзии (Rock) [APE (image + .cue), lossless ...
  • (2008) Юрий Наумов / Рок как будто Блюз (Blues) [FLAC (Image+.cue), lossles ...
  • (2009) D-Man 55 / 7.62 Б-30 (Rap) [FLAC (image+.cue) lossless]
  • (2012) Сергей Васюта и Сладкий Сон / На белом покрывале января... (Pop) [Fl ...
  • (1993) Крис Кельми / Greatest Hits (Pop-Rock) [FLAC (image+.cue), lossless] ...
  • (2011) Yanni / Truth Of Touch (New Age) [FLAC (image+ .cue),lossless]
  • (2011) Стас Михайлов / Только ты (Шансон) [Mp3, 320/CBR]
  • (2011) Стас Михайлов / Только ты Кремль Live (Шансон) [MP3, 320/CBR]
  • ( 2000-2006) PLAZMA / 3 альбома (Pop) [Flac (image+.cue), lossless]
  • (Full Studio Discography, 2011) George Michael (Japan) (Pop) [FLAC (image+. ...
  • (2011) Стас Михайлов / Ты меня не отпускай (Шансон) [мр3, 320/CBR]
  • (2011, сборник) VA / Новогодняя тридцатка 2012 (Pop, Chanson) [FLAC (image+ ...
  • (2011) Metallica / Beyond Magnetic (Thrash Metal) [FLAC (image+.cue), lossl ...
  • (2012) Стас Михайлов / Я ждал (Шансон) [MP3, 320 /CBR]
  • (2012) Стас Михайлов / Я открою своё сердце (Шансон) [MP3, 192 / CBR]
  • (2010) Татьяна Буланова / Романсы (Pop) [FLAC (image+.cue), lossless]
  • (2011) Стас Михайлов / Стас Михайлов - 50 лучших песен (Шансон) [MP3, 320/ ...
  • Информация
    Посетители, находящиеся в группе Гости, не могут оставлять комментарии к данной публикации.