вход на сайт

Имя пользователя :
Пароль :

Восстановление пароля Регистрация
(1993) Любовь Успенская / Любимый (шансон) [APE (image+.cue), lossless]
Рейтинг:
(голосов: 1)



[img]{THEME}/images/logopost.png[/img]



Исполнитель: Любовь Успенская
Альбом: Любимый
Тип альбома: Студийный
Год выпуска: 1993
Жанр: шансон
Формат: APE (image+.cue)
Битрейт: lossless

Продолжительность: 00:49:54

Tреклист:
[03:54] 01. Люба Успенская - Еще Не Поздно
[04:35] 02. Люба Успенская - Найди Себя
[04:28] 03. Люба Успенская - Мой Звёздный Сад
[05:07] 04. Люба Успенская - Гусарская Рулетка
[03:31] 05. Люба Успенская - Прости Меня, Мама
[03:51] 06. Люба Успенская - Возьми Меня с Собой
[03:26] 07. Люба Успенская - Люба - Любонька
[03:22] 08. Люба Успенская - Любимый
[03:33] 09. Люба Успенская - Не Верь Этим Словам
[05:36] 10. Люба Успенская - Не Может Быть
[04:00] 11. Люба Успенская - Калинка
[04:24] 12. Люба Успенская - Вот и Всё


Отчет EAC:
▼Exact Audio Copy V0.99 prebeta 4 from 23. January 2008

Отчёт EAC об извлечении, выполненном 1. февраля 2009, 17:03

Люба Успенская / Любимый

Дисковод: TSSTcorpCDDVDW SH-S223F Adapter: 0ID: 1

Режим чтения : Достоверность
Использование точного потока : Да
Отключение кэша аудио: Да
Использование указателей C2: Нет

Коррекция смещения при чтении : 48
Способность читать области Lead-in и Lead-out : Нет
Заполнение пропущенных сэмплов тишиной: Да
Удаление блоков с тишиной в начале и конце: Нет
При вычислениях CRC использовались нулевые сэмплы : Да
Интерфейс : Встроенный Win32-интерфейс для Win NT/2000

Выходной формат : Внутренние WAV-операции
Формат сэмплов: 44.100 Гц; 16 бит; стерео


TOC извлечённого CD

Трек | Старт| Длительность | Начальный сектор | Конечный сектор
---------------------------------------------------------------------
1|0:00.30 |3:54.00 |30|17579
2|3:54.30 |4:35.72 | 17580|38276
3|8:30.27 |4:28.50 | 38277|58426
4| 12:59.02 |5:07.23 | 58427|81474
5| 18:06.25 |3:31.67 | 81475|97366
6| 21:38.17 |3:51.28 | 97367 
9922fb107bfb93266ca944705b4c4bde0cb98e39(1993) Любовь Успенская / Любимый (шансон) [APE (image+.cue), lossless] (1993) Любовь Успенская / Любимый (шансон) [APE (image+.cue), lossless] " />

Аплоадер: Админ, дата: 14-11-2010, 17:33, торрент скачан: 359 раз

Понравилась раздача? Посмотрите эти:
  • Н.Семилетова, О.Успенская. Электроинструменты для домашних работ (Рукоделие ...
  • (2012) Григорий Лепс / Полный вперёд (Шансон) [FLAC (image+.cue), Lossless ...
  • (1989, 1991, 1992, 1993) Nirvana — 4 альбома (Grunge) [WavPack (image+.cue) ...
  • (дискография, 1983-2008) MADONNA (pop / dance) [WavPack (image+.cue) lossle ...
  • (2007) СТАС МИХАЙЛОВ - Лучшие песни (Шансон) [APE (image + .cue) lossless]
  • (2009) СЕРГЕЙ НАГОВИЦЫН / The Best Of - 2009 (Шансон) [FLAC (image+.cue) lo ...
  • (2000) Tic Tac Toe / Ist der Ruf erst ruiniert... (Rap,Hip-hop) [Lossless, ...
  • (2010) Баста / Баста 3 (Rap) [APE (image+.cue), lossless]
  • (2010) ST1M / Октябрь (Rap) [APE(image+.cue), lossless]
  • (2006) Батырхан Шукенов/ Отан Ана (Pop) [FLAC (image+.cue) lossless]
  • (1985) BABYS GANG / Challenger (Pop,Italo Disco) [APE(image+.cue)lossless] ...
  • (2012) Serebro / Mama Lover (Монолит) (Pop) [FLAC (image+.cue), lossless]
  • (Дискография, 1993-2012) Любовь Успенская (Шансон) [FLAC (image+.cue, track ...
  • (2003) THE BLACK EYED PEAS / Elephunk (RnB) [Ape (image+.cue), lossless]
  • (2009) Rihanna / Rated R (R`n`B) [APE (image+.cue)]
  • (дискография) Любовь Успенская (Шансон) [mp3 320CBR]
  • (2001) Катя Огонёк / Дорожный роман (Шансон) [FLAC (image+.cue)]
  • (2009) Любовь Успенская / Лучшие песни (Шансон) [MP3, 128 / CBR]
  • (2010) Любовь Успенская / Лети, моя девочка, лети (Шансон) [MP3, 320/CBR]
  • (2009) Челси / Точка возврата (Pop) [APE (image+.cue), lossless]
  • Серебро / Мама Люба [2011, Pop, WEBRip]
  • (2004) Ex-Сектор Газа / Огненный рай (Punk-Rock) [FLAC (image+.cue), lossle ...
  • (2008) Студия 80 / Придуманный Мир (Pop) [FLAC (image+.cue), lossless]
  • Любовь Успенская / История одной любви [2012, Шансон, DVB]
  • (Дискография, 1993-2012) Любовь Успенская (Шансон, Pop) [MP3, 128-320/CBR]
  • Информация
    Посетители, находящиеся в группе Гости, не могут оставлять комментарии к данной публикации.