вход на сайт

Имя пользователя :
Пароль :

Восстановление пароля Регистрация
(1987) Paul McCartney / All The Best ! (2 LP) (Japanese 1st press) (Rock) [LP][24bit 96kHz][FLAC(image+.cue), lossless]
Рейтинг:
(голосов: 1)



[img]{THEME}/images/logopost.png[/img]



Исполнитель: Paul McCartney
Страна: United Kingdom
Альбом: All The Best !(2 × Vinyl, LP, Compilation)
Тип альбома: Compilation
Год выпуска: 1987
Жанр: Rock
Год первоначального издания альбома: 1987
Страна (Издатель, Каталожный номер): Japanese 1st press, RP15-5545~46
Аудиокодек: FLAC (*.flac)
Тип рипа: image+.cue
Битрейт: lossless
Продолжительность: 01:26:29
Релиз: Dr. Robert (AvaxHome)
Об исполнителе (об издании): All the Best! — второй официальный альбом-сборник музыки Пола Маккартни, выпущенный в 1987 году (первым официальным сборником записей Маккартни был вышедший в 1978 Wings Greatest). В сборник вошли треки от начала сольной карьеры Маккартни в 1970 до самой новой на тот момент записи — песни «Once Upon a Long Ago»

All The Best !
Продолжительность: 01:26:29

Tреклист LP 1:

Side One
1. "Jet" – 4:08
2. "Band on the Run" – 5:11
3. "Coming Up" – 3:51
4. "Ebony and Ivory" – 3:41
5. "Listen to What the Man Said" – 3:55

Side Two
1. "No More Lonely Nights" – 4:38
2. "Silly Love Songs" – 5:54
3. "Let Em In" – 5:09
4. "C Moon" – 4:33
5. "Pipes of Peace" – 3:24

Tреклист LP 2:

Side Three
1. "Live and Let Die" – 3:11
2. "Another Day" – 3:41
3. "Maybe Im Amazed" – 3:50
4. "Goodnight Tonight" – 4:19
5. "Once Upon a Long Ago" – 4:09

Side Four
1. "Say Say Say" – 3:55
2. "With a Little Luck" – 5:45
3. "My Love" – 4:08
4. "We All Stand Together" – 4:23
5. "Mull of Kintyre" – 4:44
6. "Uncle Albert / Admiral Halsey" (Bonus Track from Dr. Robert) – 4:39
Тех. информация ▼TextОборудование:
Nitty Gritty RCM 1.5
Technics SL-1200MK2 DD Turntable with KAB Fluid Damping and KAB record grip
Ortofon 2M Black MM Cartridge
Pro-ject Tube Box SE II Preamp (2x GroveTubes GT-12AX7-R3)
Tascam US-144 external USB 2.0 Audiointerface
Mac Pro Dual Zeon 2.66 GHz
Bias Peak LE 6.2 recording software
Click Repair 3.3.1 for de-click (manual mode only)
iZotope RX Advanced 1.21 for Vinyl NR
XLD Version 20100518 (120.3) for FLAC conversion
Процесс:
RCM > TT > Ortofon 2M Blk > Tube Box preamp > ADC > Mac Pro > Peak LE @ 24/96 >
analyze (no clipping, no DC Bias offset, each side gain maximized to -0.5 dB) > split into individual tracks >
Click Repair 3.02 used in manual mode, 20~30 Rev, Pitch Protection, X2 >
iZotope RX Advanced for vinyl noise reduction using my dialed in settings >
FLAC encoded Level 5 with XLD Version 20100518 (120.3)
All de-clicking software used in full manual mode to preserve musical transients. No music was harmed in the making of this vinyl rip.
No silence been removed.
Содержимое индексной карты .cue ▼Text
REM GENRE rock
REM DATE 1987 emi odeon original japan
PERFORMER "paul mccartney"
TITLE "all the best!"
FILE "paul mccartney - all the best! lp1.flac" WAVE
TRACK 01 AUDIO
TITLE "[ SIDE 1 ] jet"
INDEX 01 00:00:00
TRACK 02 AUDIO
TITLE "band on the run"
INDEX 01 04:08:61
TRACK 03 AUDIO
TITLE "coming up"
INDEX 01 09:22:00
TRACK 04 AUDIO
TITLE "ebony and ivory"
INDEX 01 13:14:17
TRACK 05 AUDIO
TITLE "listen to what the man said"
INDEX 01 16:57:33
TRACK 06 AUDIO
TITLE "[ SIDE 2 ] no more lonely nights"
INDEX 01 20:58:59
TRACK 07 AUDIO
TITLE "silly love songs"
INDEX 01 25:38:73
TRACK 08 AUDIO
TITLE "let em in"
INDEX 01 31:34:18
TRACK 09 AUDIO
TITLE "c moon"
INDEX 01 36:45:11
TRACK 10 AUDIO
TITLE "pipes of peace"
INDEX 01 41:19:12
FILE "paul mccartney - all the best! lp2.flac" WAVE
TRACK 11 AUDIO
&nb
34f6b9009bea06cb7fad8da2011a38cb419f1de0(1987) Paul McCartney / All The Best ! (2 LP) (Japanese 1st press) (Rock) [LP][24bit 96kHz][FLAC(image+.cue), lossless] (1987) Paul McCartney / All The Best ! (2 LP) (Japanese 1st press) (Rock) [LP][24bit 96kHz][FLAC(image+.cue), lossless] " />

Аплоадер: Админ, дата: 22-12-2013, 18:51, торрент скачан: 359 раз

Понравилась раздача? Посмотрите эти:
  • (2006) The Beatles / Love (Rock) [24bit - 96kHz] [FLAC(image+.cue), lossles ...
  • (2012) The Doors - L.A. Woman(1971)[lp] [24bit - 96kHz] [FLAC(image+.cue), ...
  • (1996) George Michael / Older (1st Press Japan) (Electronic, Pop/Rock) [FLA ...
  • (2009) Nightwish / Made In Hong Kong (And In Various Other Places) (Sympho- ...
  • (2013) Paul McCartney / New (Deluxe Edition) (Rock) [FLAC (image,+.cue), lo ...
  • (2013) Linkin Park & Steve Aoki / A Light That Never Comes (Electronic Rock ...
  • (2001) Андрей Алексин / Ш*лава (Pop) [FLAC (image+.cue), lossless]
  • (2008) Karunesh /Enlightenment (New Age) [FLAC (image+.cue), lossless]
  • (2009) Dead By Sunrise / Out Of Ashes (Japanese Edition) (Alternative Rock) ...
  • (1988) David Grisman Quintet feat. Svend Asmussen / Svingin With Svend (Jaz ...
  • (2011) B.B. King / Icon (Blues) [FLAC (tracks+.cue), lossless]
  • (2012) Paul Van Dyk / Evolution (Progressive House, Trance) [FLAC (tracks+. ...
  • (2008, 5xCD Box Set) VA / Ultimate Classical Guitar - The Essential Masterp ...
  • [LP] (2011) Adele / 21 (2 CD) (XL Recordings LP; DMR) (R&B, Soul, Gospel, B ...
  • (1996) The Rasmus / Peep (Finnish Version) (Alternative Rock) [FLAC (tracks ...
  • (2006) The Rasmus / Shot (Single) (Alternative Rock) [FLAC (tracks+.cue), l ...
  • (2012) Madonna / Superstar (Pop) [FLAC (image+.cue), lossless]
  • (2011) Linkin Park / Iridescent (Alternative Rock) [FLAC(image+.cue), lossl ...
  • [LP] (1984) АНДРЕЙ ПЕТРОВ / Жестокий романс OST [FLAC LP24/96 (image+.cue), ...
  • (2011) Scorpions / Comeblack (Hard Rock) [FLAC (tracks+.cue)lossless]
  • (2012) Les Friction / Les Friction (Alt. Rock/Neo-Classical/Orchestral) [FL ...
  • (2012) Our Lady Peace / Curve (Alternative/Rock) [FLAC (tracks+.cue), lossl ...
  • (2012) Nine Lashes / World We View (Alt.Rock/Alt.Metal/Christian) [FLAC (tr ...
  • (2011) Phinehas / Thegodmachine (Metalcore) [FLAC (tracks+.cue), lossless]
  • (2011) Ink Stained Promises / Relations. (Metalcore, Hardcore) [FLAC (track ...
  • Информация
    Посетители, находящиеся в группе Гости, не могут оставлять комментарии к данной публикации.