вход на сайт

Имя пользователя :
Пароль :

Восстановление пароля Регистрация
[LP] (1984) АНДРЕЙ ПЕТРОВ / Жестокий романс OST [FLAC LP24/96 (image+.cue), lossless]
Рейтинг:
(голосов: 1)



[img]{THEME}/images/logopost.png[/img]



Исполнитель: VA (В. Пономарева, А. Кузнецов, М. Кочетков, Н. Михалков)
Альбом: Жестокий романс OST
Тип альбома: студийный, оцифровка LP-пластинки
Год выпуска: 1984
Страна: СССР
Жанр: саундтрек к фильму (Movie OST)
Формат: FLAC (image+.cue), 24 bit / 96 KHz LP-Rip
Битрейт: lossless
Продолжительность: 36:15 минут (208862893 samples)
EAC Log: отсутствует (рип с грампластинки МЕЛОДИЯ №С60 21823)
Коврики: полностью включены

Описание: Музыка из "Жестокого романса" Эльдара Рязанова, художественного фильма по мотивам пьесы А. Н. Островского «Бесприданница». Действие разворачивается в провинциальном городке. Харита Игнатьевна Огудалова — обедневшая дворянка, вдова с тремя дочерьми. При отсутствии денег она все-таки держит открытый дом, не без оснований рассчитывая, что общество красивых и музыкальных барышень привлечет холостых мужчин, которые женятся по любви на бесприданницах. Двух старших дочерей ей удается выдать замуж, осталась младшая, Лариса. За ней ухаживает барин, богач и пароходчик, Сергей Сергеевич Паратов (Никита Михалков), он очевидно влюблен в девушку…

Tреклист:Сторона 1:
01. Андрей Петров - Романс о романсе (Б. Ахмадулина)...(4:00)
02. Андрей Петров - Вальс...(4:10)
03. Андрей Петров - Снегурочка (Б. Ахмадулина)...(3:50)
04. Андрей Петров - Марш...(3:11)
05. Андрей Петров - Любовь — волшебная страна (Э. Рязанов)...(2:55)

Сторона 2:
06. Андрей Петров - Под лаской плюшевого пледа (М. Цветаева)...(2:42)
07. Андрей Петров - А цыган идет...(2:50)
08. Андрей Петров - Цыганский танец...(3:04)
09. Андрей Петров - Ой, призадумался (народная песня)...(2:01)
10. Андрей Петров - Погоня...(2:09)
11. Андрей Петров - А напоследок я скажу (Б. Ахмадулина)...(2:42)
12. Андрей Петров - Романс о романсе (Б. Ахмадулина)...(2:42)
.cue ▼TextPERFORMER "Андрей Петров "
TITLE "Музыка из кф Жестокий романс"
FILE "side 1.flac" WAVE
TRACK 01 AUDIO
TITLE "Романс о романсе (Б. Ахмадулина) "
INDEX 01 00:03:00
TRACK 02 AUDIO
TITLE "Вальс"
INDEX 01 04:03:00
TRACK 03 AUDIO
TITLE "Снегурочка (Б. Ахмадулина)"
INDEX 01 08:13:00
TRACK 04 AUDIO
TITLE "Марш"
INDEX 01 12:03:00
TRACK 05 AUDIO
TITLE "Любовь — волшебная страна (Э. Рязанов)"
INDEX 01 15:14:00
FILE "side 2.flac" WAVE
TRACK 06 AUDIO
TITLE "Под лаской плюшевого пледа (М. Цветаева)"
INDEX 01 00:03:00
TRACK 07 AUDIO
TITLE "А цыган идет"
INDEX 01 02:45:00
TRACK 08 AUDIO
TITLE "Цыганский танец"
INDEX 01 05:35:00
TRACK 09 AUDIO
TITLE "Ой, призадумался (народная песня)"
INDEX 01 08:39:00
TRACK 10 AUDIO
TITLE "Погоня"
INDEX 01 10:40:00
TRACK 11 AUDIO
TITLE "А напоследок я скажу (Б. Ахмадулина)"
INDEX 01 12:49:00
TRACK 12 AUDIO
TITLE "Романс о романсе (Б. Ахмадулина)"
INDEX 01 15:31:00

Audiochecker log ▼
Text- Класс состояния винила:EX
- Устройство воспроизведения:Technics SL-1210 МК2
- Картридж - G.P.G.
- Фонокорректор Creek OBH-8 SE
- АЦП:AK5394A Карта E-MU1212m PCI v.2
- Программа-оцифровщик: WaveLab 5
- Обработка: нет
- Кодировка во Flac Foobar2000 0.9.6.9
- Flac v. 1.2.0
- Формат записи: (Bit/kHz) 24/ 96
- Формат раздачи:(Bit/kHz) 24/96
©sserg14


84da81b2cea89d4900ebd53edbe05ad8b42a90b4[LP] (1984) АНДРЕЙ ПЕТРОВ / Жестокий романс OST [FLAC LP24/96 (image+.cue), lossless] [LP] (1984) АНДРЕЙ ПЕТРОВ / Жестокий романс OST [FLAC LP24/96 (image+.cue), lossless] " />

Аплоадер: Админ, дата: 19-07-2011, 23:24, торрент скачан: 359 раз

Понравилась раздача? Посмотрите эти:
  • (1987) Paul McCartney / All The Best ! (2 LP) (Japanese 1st press) (Rock) ...
  • (2006) The Beatles / Love (Rock) [24bit - 96kHz] [FLAC(image+.cue), lossles ...
  • (2012) The Doors - L.A. Woman(1971)[lp] [24bit - 96kHz] [FLAC(image+.cue), ...
  • (1993) Coverdale & Page / Coverdale & Page (EMI Holland)(Hard Rock) [FLAC ( ...
  • (2009) Nightwish / Made In Hong Kong (And In Various Other Places) (Sympho- ...
  • (2013) Buddy Guy / Rhythm & Blues (2CD) (Blues) [FLAC (image+.cue), Lossles ...
  • (2013) Paul McCartney / New (Deluxe Edition) (Rock) [FLAC (image,+.cue), lo ...
  • Уральские Пельмени - "Назад в булошную"
  • 5 альбомов группы "E-type"
  • (2001) Андрей Алексин / Ш*лава (Pop) [FLAC (image+.cue), lossless]
  • (2008, 5xCD Box Set) VA / Ultimate Classical Guitar - The Essential Masterp ...
  • [LP] (2011) Adele / 21 (2 CD) (XL Recordings LP; DMR) (R&B, Soul, Gospel, B ...
  • Журналы "Радиоконструктор"
  • Н.Петров "Техника и технология парения в русской бане" [2009, DVD ...
  • (2012) Madonna / Superstar (Pop) [FLAC (image+.cue), lossless]
  • Баста-клипы ("Мама", "Осень", "Раз и навсегда" ...
  • Фитнес от "А" до "Я" для девушек (2005 г. )
  • [Журнал] "Verena" - Узоры для вязания. - Энне Бурда. (ЗАО "Издательский д ...
  • (2011) Volumes / Via (Progressive Metalcore/Math Metal) [FLAC (image+.cue), ...
  • (2012) Ария / Live In Studio (Heavy Metal) [FLAC (image+.сue), lossless]
  • Информация
    Посетители, находящиеся в группе Гости, не могут оставлять комментарии к данной публикации.