вход на сайт

Имя пользователя :
Пароль :

Восстановление пароля Регистрация
(2011) Lil Wayne / Tha Carter IV (Target Deluxe Edition) (Hip-Hop) [FLAC (tracks+.cue), lossless]
Рейтинг:
(голосов: 1)



[img]{THEME}/images/logopost.png[/img]



Исполнитель: Lil Wayne
Страна: USA
Альбом: Tha Carter IV (Target Deluxe Edition)
Тип альбома: Студийный
Год выпуска: 2011
Жанр: Hip-Hop
Аудиокодек:FLAC (*.flac)
Тип рипа: tracks+.cue
Битрейт: lossless
LOG-файлы: Присутствуют
Сканы: Отсутствуют
Продолжительность: 1:19:20


Tреклист:
01. Intro[00:02:52]
02. Blunt Blowin[00:05:12]
03. Megaman[00:03:18]
04. 6 Foot 7 Foot (feat. Cory Gunz)[00:04:08]
05. Nightmares of the Bottom[00:04:41]
06. She Will (feat. Drake)[00:05:05]
07. How to Hate (feat. T-Pain)[00:04:38]
08. Interlude (feat. Tech N9ne)[00:02:01]
09. John (feat. Rick Ross)[00:4:46]
10. Abortion[00:03:43]
11. So Special (feat. John Legend)[00:03:52]
12. How to Love[00:04:00]
13. President Carter[00:04:15]
14. Its Good (feat. Jadakiss, Drake)[00:04:01]
15. Outro (feat. Bun B, Nas, Shyne, Busta Rhymes)[00:03:52]
16. I Like the View[00:04:41]
17. Mirror (feat. Bruno Mars)[00:03:48]
18. Two Shots[00:02:44]
19. Novacane (feat. Kevin Rudolf)[00:03:38]
20. I Got Some Money on Me (feat. Birdman)[00:04:05]

Лог создания рипа ▼TextExact Audio Copy V1.0 beta 2 from 29. April 2011

EAC extraction logfile from 29. August 2011, 9:13

Lil Wayne / Tha Carter IV (Target Deluxe Edition)

Used drive : ATAPI iHAS224 A Adapter: 3 ID: 0

Read mode : Secure
Utilize accurate stream : Yes
Defeat audio cache : Yes
Make use of C2 pointers : No

Read offset correction : 6
Overread into Lead-In and Lead-Out : No
Fill up missing offset samples with silence : Yes
Delete leading and trailing silent blocks : No
Null samples used in CRC calculations : Yes
Used interface : Native Win32 interface for Win NT & 2000
Gap handling : Appended to previous track

Used output format : User Defined Encoder
Selected bitrate : 320 kBit/s
Quality : High
Add ID3 tag : No
Command line compressor : C:Program Files (x86)Exact Audio CopyFlacflac.exe
Additional command line options : -V -8 -T "artist=%albumartist%" -T "title=%title%" -T "album=%albumtitle%" -T "date=%year%" -T "tracknumber=%tracknr%" -T "genre=%genre%" %source%


TOC of the extracted CD

Track | Start | Length | Start sector | End sector
---------------------------------------------------------
1 | 0:00.00 | 2:52.04 | 0 | 12903
2 | 2:52.04 | 5:12.72 | 12904 | 36375
3 | 8:05.01 | 3:18.21 | 36376 | 51246
4 | 11:23.22 | 4:08.44 | 51247 | 69890
5 | 15:31.66 | 4:41.06 | 69891 | 90971
6 | 20:12.72 | 5:05.63 | 90972 | 113909 
241ea1b320880363219fd0cd3416df450bfc108a(2011) Lil Wayne / Tha Carter IV (Target Deluxe Edition) (Hip-Hop) [FLAC (tracks+.cue), lossless] (2011) Lil Wayne / Tha Carter IV (Target Deluxe Edition) (Hip-Hop) [FLAC (tracks+.cue), lossless] " />

Аплоадер: Админ, дата: 21-01-2013, 23:02, торрент скачан: 359 раз

Понравилась раздача? Посмотрите эти:
  • (2013) Paul McCartney / New (Deluxe Edition) (Rock) [FLAC (image,+.cue), lo ...
  • (2013) Prodigy & The Alchemist / Albert Einstein (Underground Hip-Hop) [FLA ...
  • (2013) Hans Zimmer / Человек из стали / Man Of Steel [Deluxe Edition] (2 CD ...
  • (2013) A$AP Rocky | Long. Live. ASAP (Deluxe Edition) (Rap|Hip-Hop) [FLAC ( ...
  • (2013) Tyga / Hotel California (Deluxe Edition) (Hip-Hop) [FLAC (tracks+.c ...
  • (2013) Bon Jovi / What About Now (Deluxe Edition) (Hard Rock) [FLAC (tracks ...
  • (2013) Joe Budden / No Love Lost (Hip-Hop) [FLAC (tracks+.cue), lossless]
  • (2011) Lil Wayne / Tha Carter IV (Deluxe Edition) (Rap, Hip-Hop) [MP3, 320/ ...
  • (2010) Tinie Tempah / Disc-Overy (Hip-Hop/ Grime) [FLAC (tracks+ .cue) loss ...
  • (2011) Daughtry / Break the Spell (Deluxe Edition) (Alt. Rock / Modern Rock ...
  • (2011) Michael Bublé / Christmas (Limited Edition) (Vocal Jazz, Christmas) ...
  • (2011) Lil Wayne / Tha Carter IV (Rap, Hip-Hop) [FLAC (tracks+.cue), loss ...
  • (2011) Korn (KoЯn) / The Path Of Totality (Special Edition) (Nu Metal | Dub ...
  • (2012) Amy MacDonald / Life In A Beautiful Light (Deluxe Edition) (Acoustic ...
  • (2012) B.o.B / Strange Clouds (Deluxe Edition) (Hip-Hop/Pop) [FLAC (tracks+ ...
  • (2000) Bomfunk MCs / In Stereo (Special 2CD Edition) (Electro, Hip-Hop, Fun ...
  • (2012) Ke$ha (Kesha) - Warrior (Deluxe Edition) (Pop, Dance) [FLAC (tracks ...
  • (2011) Chris Brown / F.A.M.E. (Deluxe Edition) (R&B) [FLAC (tracks+.cue), l ...
  • (2012) Usher / Looking 4 Myself (Deluxe Version) (R&B, Soul) [FLAC (tracks+ ...
  • (2012) Netsky / 2 (Drum & Bass, Dubstep) [FLAC (tracks+.cue), lossless]
  • (2011) SeeS / The enD (Progressive/Math Metal) [FLAC (tracks+.cue), lossles ...
  • (2012) KoRn feat. Skrillex / Chaos Lives In Everything (UK Promo) (Nu-metal ...
  • (2011) Phinehas / Thegodmachine (Metalcore) [FLAC (tracks+.cue), lossless]
  • (2012) Dash Berlin / #musicislife (Trance) [FLAC (tracks+.сue), lossless]
  • (2012) Schiller / Sonne (3 CD) (Limited Ultra Deluxe Edition) (Ambient/Chil ...
  • Информация
    Посетители, находящиеся в группе Гости, не могут оставлять комментарии к данной публикации.