вход на сайт

Имя пользователя :
Пароль :

Восстановление пароля Регистрация
(2011) Dope D.O.D. / Branded (Hip-Hop, Dubstep) [FLAC (tracks+.cue), lossless]
Рейтинг:
(голосов: 1)



[img]{THEME}/images/logopost.png[/img]



*Исполнитель: Dope D.O.D.
*Страна: Netherlands
*Альбом: Branded
*Тип альбома: Студийный
*Год выпуска: 2011
*Жанр: Hip-Hop, Dubstep
*Аудиокодек: FLAC (*.flac)
*Тип рипа: tracks+.cue
*Битрейт: lossless
*LOG-Файлы: Присутствуют
*Сканы: Отсутствуют
*Продолжительность: 00:58:48

*Об исполнителе: Dope D. O. D. — это нидерландская андеграунд хип-хоп группа из города Гронинген. Команда состоит из трёх эмси: Джей-ли Рипера, Скитса Вишеса и Доупи Роттена. Аббревиатура D. O. D. расшифровывается как Duo Of Darkness.

*Tреклист:
01. Branded[02:43]
02. What Happened[03:36]
03. The Island[03:05]
04. Real Gods (feat. Simon Roofless)[03:25]
05. Combust[03:07]
06. Ghost And The Darkness[04:09]
07. Redrum[03:55]
08. Psychosis (feat. Sean Price)[03:08]
09. Slowmotion[04:17]
10. Cosmosis Jones[03:56]
11. Pandora’s Box[02:36]
12. Witness The Crispness[03:34]
13. Gatekeepers[03:15]
14. Candy Flipping[03:45]
15. Blaow!!!![02:56]
16. Mothership[03:13]
17. Dark Age[04:11]

Лог создания рипа ▼TextExact Audio Copy V1.0 beta 3 from 29. August 2011

EAC extraction logfile from 29. September 2011, 23:28

Dope D.O.D. / Branded

Used drive : Optiarc DVD RW AD-7191A Adapter: 4 ID: 0

Read mode : Secure
Utilize accurate stream : Yes
Defeat audio cache : Yes
Make use of C2 pointers : No

Read offset correction : 6
Overread into Lead-In and Lead-Out : No
Fill up missing offset samples with silence : Yes
Delete leading and trailing silent blocks : No
Null samples used in CRC calculations : Yes
Used interface : Native Win32 interface for Win NT & 2000
Gap handling : Appended to previous track

Used output format : User Defined Encoder
Selected bitrate : 1024 kBit/s
Quality : High
Add ID3 tag : No
Command line compressor : C:Program FilesExact Audio CopyFlacflac.exe
Additional command line options : -V -8 -T "artist=%artist%" -T "title=%title%" -T "album=%albumtitle%" -T "date=%year%" -T "tracknumber=%tracknr%" -T "genre=%genre%" %source%

TOC of the extracted CD

Track | Start | Length | Start sector | End sector
---------------------------------------------------------
1 | 0:00.00 | 2:43.58 | 0 | 12282
2 | 2:43.58 | 3:36.70 | 12283 | 28552
3 | 6:20.53 | 3:04.72 | 28553 | 42424
4 | 9:25.50 | 3:25.59 | 42425 | 57858
5 | 12:51.34 | 3:07.51 | 57859 | 71934
6 | 15:59.10 | 4:09.30 | 71935 | 90639
7 | 20:08.40 | 3:54.72 | 90640 | 108261
8 | 24:03
9ca1537e023a389fa1f8d69cd8dcb5c6b445e3db(2011) Dope D.O.D. / Branded (Hip-Hop, Dubstep) [FLAC (tracks+.cue), lossless] (2011) Dope D.O.D. / Branded (Hip-Hop, Dubstep) [FLAC (tracks+.cue), lossless] " />

Аплоадер: Админ, дата: 24-01-2013, 16:51, торрент скачан: 359 раз

Понравилась раздача? Посмотрите эти:
  • (2013) Prodigy & The Alchemist / Albert Einstein (Underground Hip-Hop) [FLA ...
  • (2010) Zaz / Zaz (Nu jazz, Chanson, Soul) [FLAC (tracks+.cue), lossless]
  • (2011) Daughtry / Break the Spell (Deluxe Edition) (Alt. Rock / Modern Rock ...
  • (2011) Korn (KoЯn) / The Path Of Totality (Special Edition) (Nu Metal | Dub ...
  • (2011) Виктория - победительница / Victorious (OST) [FLAC (tracks+.cue), lo ...
  • (2011) B.B. King / Icon (Blues) [FLAC (tracks+.cue), lossless]
  • (2012) Tomandandy / Resident Evil: Retribution (Score, Soundtrack)[FLAC (tr ...
  • (2011) Alex Clare / The Lateness of the Hour (Soul, Pop, Dubstep) [FLAC (tr ...
  • (2011) Mistabishi / Trip (Drum & Bass, Breakbeat) [FLAC (tracks+.cue), loss ...
  • (2012) Netsky / 2 (Drum & Bass, Dubstep) [FLAC (tracks+.cue), lossless]
  • (2011) Scorpions / Comeblack (Hard Rock) [FLAC (tracks+.cue)lossless]
  • (2011) Revocation / Chaos of Forms (Death Metal/Thrash) [FLAC (tracks+.cue) ...
  • (2011) Дельфин / Существо (Alternative|Experimental) [FLAC (tracks+.cue), l ...
  • (2011) Ленинград / Хна (Rock) [FLAC (tracks+.cue), lossless]
  • (2012) Les Friction / Les Friction (Alt. Rock/Neo-Classical/Orchestral) [FL ...
  • (2011) SeeS / The enD (Progressive/Math Metal) [FLAC (tracks+.cue), lossles ...
  • (2011) The Browning / Burn This World (Deathcore/Electronic) [FLAC (tracks+ ...
  • (2012) KoRn feat. Skrillex / Chaos Lives In Everything (UK Promo) (Nu-metal ...
  • (2011) Phinehas / Thegodmachine (Metalcore) [FLAC (tracks+.cue), lossless]
  • (2011) Dope D.O.D. / Branded (Hardcore Rap/Grime) [MP3, 320/CBR]
  • Информация
    Посетители, находящиеся в группе Гости, не могут оставлять комментарии к данной публикации.