вход на сайт

Имя пользователя :
Пароль :

Восстановление пароля Регистрация
(2010) 2Pac / Greatest Hits (Rap & Hip Hop) [APE (image+.cue), lossless]
Рейтинг:
(голосов: 1)



[img]{THEME}/images/logopost.png[/img]



Исполнитель: 2Pac
Альбом: Greatest Hits
Тип альбома: Compilation
Год выпуска: 2010
Жанр: Rap & Hip Hop
Формат: APE (image+.сue)
Битрейт: lossless
Продолжительность: 0:55:46 + 0:59:19

Tреклист:
CD1
01. Keep Ya Head Up - 04:23
02. 2 Of Amerikaz Most Wanted (feat. Snoop Dogg) - 04:07
03. Temptations - 05:02
04. God Bless The Dead (feat. Stretch) - 04:22
05. Hail Mary - 05:12
06. Me Against The World (feat. Dramacydal) - 04:39
07. How Do You Want It (feat. K-Ci & JoJo) - 04:48
08. So Many Tears - 03:58
09. Unconditional Love - 03:59
10. Trapped - 04:46
11. Life Goes On - 05:02
12. Hit Em Up (feat. The Outlawz) - 05:13
Лог создания рипа ▼Exact Audio Copy V0.99 prebeta 4 from 23. January 2008

EAC extraction logfile from 22. May 2010, 16:07

2Pac / Greatest Hits (CD 1)

Used drive: Optiarc DVD RW AD-5200A Adapter: 5ID: 0

Read mode : Secure
Utilize accurate stream : Yes
Defeat audio cache: Yes
Make use of C2 pointers : No

Read offset correction: 48
Overread into Lead-In and Lead-Out: No
Fill up missing offset samples with silence : Yes
Delete leading and trailing silent blocks : No
Null samples used in CRC calculations : Yes
Used interface: Native Win32 interface for Win NT & 2000

Used output format : Internal WAV Routines
Sample format: 44.100 Hz; 16 Bit; Stereo

TOC of the extracted CD

Track | Start|Length| Start sector | End sector
---------------------------------------------------------
1|0:00.00 |4:23.60 | 0|19784
2|4:23.60 |4:07.20 | 19785|38329
3|8:31.05 |5:02.40 | 38330|61019
4| 13:33.45 |4:22.37 | 61020|80706
5| 17:56.07 |5:12.68 | 80707| 104174
6| 23:09.00 |4:39.00 |104175| 125099
7| 27:48.00 |4:48.25 |125100| 146724
8| 32:36.25 |3:58.65 |146725| 164639
9| 36:35.15 |3:59.22 |164640| 182586
10| 40:34.37 |4:46.00 |182587| 2
417158f57f3850aa3904c6ebb5d355a10d57199f(2010) 2Pac / Greatest Hits (Rap & Hip Hop) [APE (image+.cue), lossless] (2010) 2Pac / Greatest Hits (Rap & Hip Hop) [APE (image+.cue), lossless] " />

Аплоадер: Админ, дата: 20-04-2012, 18:35, торрент скачан: 359 раз

Понравилась раздача? Посмотрите эти:
  • (2009) Ozzy Osbourne / Greatest Hits (2CD) (Heavy Metal, Hard Rock) [FLAC ( ...
  • (2010) Schiller / Greatest Hits (2 CD) (Electronic,Downtempo, Trance, Ambi ...
  • (2010) 2Pac / Greatest Hits (Blu-spec CD)(Rap) [mp3, 320 kbps/CBR]
  • (Jazz) LOUIS ARMSTRONG — Louis Armstrongs All Time Greatest Hits — 2003, F ...
  • (1991) James Brown - 20 All-Time Greatest Hits![FLAC (tracks+.cue) lossless ...
  • (Дискография) ДЕЛЬФИН (DOLPHIN) (Alternative) [WavPack/image+cue, lossless] ...
  • (2008) Ассаи / Фаталист (Rap) [Ape(image+.cue), lossless]
  • (2008) Капа и Картель / Гламурным (Rap) [Ape(image+ cue), lossless]
  • (2010) Ассаи / Лифт (Rap) [FLAC(image+.cue), lossless]
  • (2010) Eminem / Recovery (Rap / Hip-Hop) [FLAC (tracks+.cue) lossless]
  • (2010) Алиса / Ъ (The Hard Sign) (Hard Rock) [WavPack (iso.wv (image+.cue)) ...
  • (2007) Константин Никольский / Иллюзии (Rock) [APE (image + .cue), lossless ...
  • (2010) YELLO / Yello By Yello. The Anthology (Limited Deluxe Edition 3CD+D ...
  • (2010) Unkle - Where Did The Night Fall, (Electronic, Trip-Hop), [FLAC (tra ...
  • (2011) Mylene Farmer/ Bleu Noir (CDS + CDM) (Pop) [APE (image+.cue) lossles ...
  • (2011, сборник) ATB / Greatest Hits (Trance) [FLAC (tracks+.сue), lossless] ...
  • (2010) Rihanna / Loud (R&B) [FLAC (tracks+.cue), lossless]
  • (1993) Крис Кельми / Greatest Hits (Pop-Rock) [FLAC (image+.cue), lossless] ...
  • (2011) Yanni / Truth Of Touch (New Age) [FLAC (image+ .cue),lossless]
  • (2011) Yellowcard / Greatest Hits (Japan Edition) (Punk) [FLAC (image+.cue) ...
  • Информация
    Посетители, находящиеся в группе Гости, не могут оставлять комментарии к данной публикации.