вход на сайт

Имя пользователя :
Пароль :

Восстановление пароля Регистрация
(2010) Tinie Tempah / Disc-Overy (Hip-Hop/ Grime) [FLAC (tracks+ .cue) lossless]
Рейтинг:
(голосов: 1)



[img]{THEME}/images/logopost.png[/img]



Исполнитель: Tinie Tempah
Альбом: Disc-Overy
Тип альбома: Студийный (LP)
Год выпуска: 2010
Жанр: Hip-Hop/ Grime
Формат: FLAC +.сue,
Битрейт: lossless
Продолжительность: 00:46:54

Tреклист:

01. Intro (2:31)
02. Simply Unstoppable (3:33)
03. Pass Out (4:28)
04. Illusion (3:16)
05. Just A Little (feat. Range) (3:02)
06. Snap (3:05)
07. Written In The Stars (feat. Eric Turner) (3:40)
08. Frisky (feat. Labrinth) (4:55)
09. Miami 2 Ibiza (feat. Swedish House Mafia) (3:25)
10. Obsession (3:42)
11. Invincible (feat. Kelly Rowland) (3:21)
12. Wonderman (feat. Ellie Goulding) (3:39)
13. Let Go (feat. Emeli Sande) (4:17)

"Сканы" ▼

"Отчет EAC" ▼TextExact Audio Copy V0.99 prebeta 5 from 4. May 2009

EAC extraction logfile from 5. October 2010, 18:21

Tinie Tempah / Disc-Overy

Used drive : ATAPI iHAS324 Y Adapter: 3 ID: 0

Read mode : Secure
Utilize accurate stream : Yes
Defeat audio cache : Yes
Make use of C2 pointers : No

Read offset correction : 48
Overread into Lead-In and Lead-Out : No
Fill up missing offset samples with silence : Yes
Delete leading and trailing silent blocks : No
Null samples used in CRC calculations : Yes
Used interface : Native Win32 interface for Win NT & 2000
Gap handling : Appended to previous track

Used output format : User Defined Encoder
Selected bitrate : 768 kBit/s
Quality : High
Add ID3 tag : No
Command line compressor : C:Program Files (x86)Exact Audio CopyFLACFLAC.EXE
Additional command line options : -8 -T "artist=%a" -T "title=%t" -T "album=%g" -T "date=%y" -T "tracknumber=%n" -T "genre=%m" %s


TOC of the extracted CD

Track | Start | Length | Start sector | End sector
---------------------------------------------------------
1 | 0:00.00 | 2:30.50 | 0 | 11299
2 | 2:30.50 | 3:33.25 | 11300 | 27299
3 | 6:04.00 | 4:28.04 | 27300 | 47403
4 | 10:32.04 | 3:16.04 | 47404 | 62107
5 | 13:48.08 | 3:02.33 | 62108 | 75790
6 | 16:50.41 | 3:05.13 | 75791 | 89678
7 | 19:55.54 | 3:39.42 | 89679 | 106145
8 | 23:35.21 | 4:55.31 | 106146 | 128301
9 | 28:30.52 | 3:24.50 | 128302 | 143651
10 | 31:55.27 |&n
72e9b4dff2e28546b9093f69ca5041f9e8435bff(2010) Tinie Tempah / Disc-Overy (Hip-Hop/ Grime) [FLAC (tracks+ .cue) lossless] (2010) Tinie Tempah / Disc-Overy (Hip-Hop/ Grime) [FLAC (tracks+ .cue) lossless] " />

Аплоадер: Админ, дата: 11-10-2010, 12:58, торрент скачан: 359 раз

Понравилась раздача? Посмотрите эти:
  • (2013) Prodigy & The Alchemist / Albert Einstein (Underground Hip-Hop) [FLA ...
  • (2010) Zaz / Zaz (Nu jazz, Chanson, Soul) [FLAC (tracks+.cue), lossless]
  • (2011) Lil Wayne / Tha Carter IV (Rap, Hip-Hop) [FLAC (tracks+.cue), loss ...
  • (2011) Виктория - победительница / Victorious (OST) [FLAC (tracks+.cue), lo ...
  • (2010) Ravenna / Debrief (Alt. Rock / Christian Rock / Indie) [FLAC (tracks ...
  • (2011) B.B. King / Icon (Blues) [FLAC (tracks+.cue), lossless]
  • (2000) Bomfunk MCs / In Stereo (Special 2CD Edition) (Electro, Hip-Hop, Fun ...
  • (2011) Lil Wayne / Tha Carter IV (Target Deluxe Edition) (Hip-Hop) [FLAC (t ...
  • (2012) Usher / Looking 4 Myself (Deluxe Version) (R&B, Soul) [FLAC (tracks+ ...
  • (2011) Tinie Tempah / Disc-Overy (US iTunes Version) (Rap/Hip-Hop) [MP3, 25 ...
  • (2011) Ляпис Трубецкой / Веселые картинки (Rock) [FLAC (tracks+.cue), lossl ...
  • (2011) Дельфин / Существо (Alternative|Experimental) [FLAC (tracks+.cue), l ...
  • (2011) Ленинград / Хна (Rock) [FLAC (tracks+.cue), lossless]
  • (2012) Les Friction / Les Friction (Alt. Rock/Neo-Classical/Orchestral) [FL ...
  • (2011) SeeS / The enD (Progressive/Math Metal) [FLAC (tracks+.cue), lossles ...
  • (2011) Downhere / On The Altar Of Love (Alternative Rock/Christian Rock) [F ...
  • (2011) The Browning / Burn This World (Deathcore/Electronic) [FLAC (tracks+ ...
  • (2012) KoRn feat. Skrillex / Chaos Lives In Everything (UK Promo) (Nu-metal ...
  • (2011) Phinehas / Thegodmachine (Metalcore) [FLAC (tracks+.cue), lossless]
  • (2012) Dash Berlin / #musicislife (Trance) [FLAC (tracks+.сue), lossless]
  • Информация
    Посетители, находящиеся в группе Гости, не могут оставлять комментарии к данной публикации.