вход на сайт

Имя пользователя :
Пароль :

Восстановление пароля Регистрация
(2010) Eminem / Recovery (Rap / Hip-Hop) [FLAC (tracks+.cue) lossless]
Рейтинг:
(голосов: 1)



[img]{THEME}/images/logopost.png[/img]



Исполнитель: Eminem
Альбом: Recovery
Тип альбома: Официальный
Год выпуска: 2010
Жанр: Rap / Hip Hop
Формат: FLAC (tracks+cue)
Битрейт: Lossless
Продолжительность: 1:17:05

Трэклист:
01. Cold Wind Blows
02. Talkin 2 Myself (Feat. Kobe)
03. On Fire
04. Wont Back Down (Feat. Pink)
05. W.T.P.
06. Going Through Changes
07. Not Afraid
08. Seduction
09. No Love (Feat. Lil Wayne)
10. Space Bound
11. Cinderella Man
12. 25 to Life
13. So Bad
14. Almost Famous
15. Love the Way You Lie (Feat. Rihanna)
16. Youre Never Over
17. Untitled

EAC
▼Exact Audio Copy V0.99 prebeta 5 from 4. May 2009

EAC extraction logfile from 18. June 2010, 15:34

Eminem / Recovery

Used drive: TSSTcorpCD/DVDW SH-S182F Adapter: 1ID: 1

Read mode : Secure
Utilize accurate stream : Yes
Defeat audio cache: Yes
Make use of C2 pointers : No

Read offset correction: 6
Overread into Lead-In and Lead-Out: No
Fill up missing offset samples with silence : Yes
Delete leading and trailing silent blocks : No
Null samples used in CRC calculations : Yes
Used interface: Native Win32 interface for Win NT & 2000
Gap handling: Appended to previous track

Used output format: User Defined Encoder
Selected bitrate: 1024 kBit/s
Quality : High
Add ID3 tag : No
Command line compressor : C:Program FilesExact Audio CopyFLACFLAC.EXE
Additional command line options : -V -8 -T "ARTIST=%a" -T "TITLE=%t" -T "ALBUM=%g" -T "DATE=%y" -T "TRACKNUMBER=%n" -T "GENRE=%m" -T "COMMENT=%e" %s -o %d


TOC of the extracted CD

Track | Start|Length| Start sector | End sector
---------------------------------------------------------
1|0:00.00 |5:03.55 | 0|22779
2|5:03.55 |5:00.32 | 22780|45311
3| 10:04.12 |3:33.37 | 45312|61323
4| 13:37.49 |4:25.68 | 61324|81266
5| 18:03.42 |3:58.13 | 81267&n
5e4ee8f864a4f587cf6304b0e29148211c81f71c(2010) Eminem / Recovery (Rap / Hip-Hop) [FLAC (tracks+.cue) lossless] (2010) Eminem / Recovery (Rap / Hip-Hop) [FLAC (tracks+.cue) lossless] " />

Аплоадер: Админ, дата: 20-06-2010, 01:25, торрент скачан: 359 раз

Понравилась раздача? Посмотрите эти:
  • (2009) НОЧНЫЕ СНАЙПЕРЫ — Армия2009 (русский рок) [FLAC (lossless), tracks+. ...
  • (2009) SHAKIRA / She Wolf (US Edition) (Pop) [Flac (tracks+.cue), lossless] ...
  • (2010)Scorpions/Sting In The Tail [FLAC (tracks+cue), lossless]
  • (2010) ПИKНИК / Театр Абсурда (Art-Rock) [FLAC (tracks+.cue), lossless]
  • (2010) Deftones / Diamond Eyes (Nu metal / Alternative) [FLAC, (tracks+ cu ...
  • (2008) Pink / Funhouse (Pop) [FLAC (tracks) lossless]
  • (Дискография) GORILLAZ (Trip-Hop) [FLAC (tracks + .cue) lossless]
  • (2010) Начало / Inception (by Hans Zimmer) (Score) [FLAC (tracks+.cue) loss ...
  • (2010) Michael Jackson - Michael (Pop) [FLAC, (tracks+.cue), lossless]
  • (2010) Нюша / Выбирать чудо (Pop) [FLAC(tracks+.cue), lossless]
  • (2009) Michael Jackson / The Stripped Mixes (POP) [Flac / Tracks + .cue]
  • (2010) Zaz / Zaz (Nu jazz, Chanson, Soul) [FLAC (tracks+.cue), lossless]
  • (2011) Lil Wayne / Tha Carter IV (Rap, Hip-Hop) [FLAC (tracks+.cue), loss ...
  • (2010) Ne-Yo / Libra Scale (Japanese Edition) (RnB) [FLAC (tracks+.cue) los ...
  • (2010) Rihanna / Loud (R&B) [FLAC (tracks+.cue), lossless]
  • (2003) DJ Zinc / Faster (DnB, Breaks) [ FLAC (tracks+.cue), lossless]
  • (2010) Sade / Soldier Of Love ( jazz, soul, blues) [FLAC (tracks) lossless] ...
  • (2010) Morcheeba / Blood Like Lemonade ( Electronic, Downtempo, Pop, Trip-h ...
  • (2010) Linkin Park / A Thousand Suns (Alternative, Electronic) [FLAC (track ...
  • (2011) Electric Universe / Higher Modes (Psytrance, Full On) [FLAC (tracks+ ...
  • Информация
    Посетители, находящиеся в группе Гости, не могут оставлять комментарии к данной публикации.