вход на сайт

Имя пользователя :
Пароль :

Восстановление пароля Регистрация
(Дискография) GORILLAZ (Trip-Hop) [FLAC (tracks + .cue) lossless]
Рейтинг:
(голосов: 1)



[img]{THEME}/images/logopost.png[/img]



Страна: UK
Жанр: Trip-Hop
Официальный сайт: http://www.gorillaz.com/
Формат lossless: FLAC / tracks + .cue
Дата выхода: 2001-2010
Covers: Присутствуют
Продолжительность: 09:17:32
Треклист:
Singles:
2001 - 19-2000 (DPRO-16488) ▼
[03:29] 01. Gorillaz - 19-2000
[00:14] 02. Gorillaz - Call-Out Hook
Отчёт Exact Audio Copy: ▼Exact Audio Copy V0.99 prebeta 5 from 4. May 2009

EAC extraction logfile from 21. August 2009, 0:43

Gorillaz / 19-2000

Used drive: Optiarc DVD RW AD-7200S Adapter: 0ID: 0

Read mode : Secure
Utilize accurate stream : Yes
Defeat audio cache: Yes
Make use of C2 pointers : No

Read offset correction: 48
Overread into Lead-In and Lead-Out: No
Fill up missing offset samples with silence : Yes
Delete leading and trailing silent blocks : No
Null samples used in CRC calculations : Yes
Used interface: Native Win32 interface for Win NT & 2000
Gap handling: Appended to previous track

Used output format: User Defined Encoder
Selected bitrate: 320 kBit/s
Quality : High
Add ID3 tag : No
Command line compressor : C:Program FilesExact Audio CopyFlacflac.exe
Additional command line options : -6 -V -T "ARTIST=%a" -T "TITLE=%t" -T "ALBUM=%g" -T "DATE=%y" -T "TRACKNUMBER=%n" -T "GENRE=%m" -T "COMMENT=%e" %s -o %d

TOC of the extracted CD

Track | Start|Length| Start sector | End sector
---------------------------------------------------------
1|0:00.00 |3:29.30 | 0|15704
2|3:29.30 |3:29.40 | 15705|31419
3|6:58.70 |0:14.22 | 31420|32491

Track1

Filename C:Recovered FilesAudioGorillazSingles2001 - 19-2000 (DPRO-16488)1 - 19-2000 (Soulchild remix).wav

Pre-gap length0:00:02.00

Peak level 96.6 %
Track quality 100.0 %
Test CRC E090565A
Copy CRC E090565A
Track not present in AccurateRip database
Copy OK

Track2

Filename C:Recovered Fi
dbccef617178574488875e0e274643b8b2980f59(Дискография) GORILLAZ (Trip-Hop) [FLAC (tracks + .cue) lossless] (Дискография) GORILLAZ (Trip-Hop) [FLAC (tracks + .cue) lossless] " />

Аплоадер: Админ, дата: 6-06-2010, 20:09, торрент скачан: 359 раз

Понравилась раздача? Посмотрите эти:
  • (Дискография) 1981-2009 Depeche Mode (Electronic, Synthpop) [FLAC (tracks+ ...
  • (2009) НОЧНЫЕ СНАЙПЕРЫ — Армия2009 (русский рок) [FLAC (lossless), tracks+. ...
  • (2001) GORILLAZ / Gorillaz (US Edition) (Hip-Hop) [FLAC (image+cue), lossle ...
  • (2007) GORILLAZ / D-Sides [Japan Edition] (Hip-Hop) [FLAC (image+cue), loss ...
  • (2009) SHAKIRA / She Wolf (US Edition) (Pop) [Flac (tracks+.cue), lossless] ...
  • (2008) Pink / Funhouse (Pop) [FLAC (tracks) lossless]
  • (2002) PPK (ППК) / ReLoad. Russian Trance (Trance) [FLAC (tracks+cue), loss ...
  • (2010) Ravenna / Debrief (Alt. Rock / Christian Rock / Indie) [FLAC (tracks ...
  • (2010) Rihanna / Loud (R&B) [FLAC (tracks+.cue), lossless]
  • (2003) DJ Zinc / Faster (DnB, Breaks) [ FLAC (tracks+.cue), lossless]
  • (2006) The Rasmus / Shot (Single) (Alternative Rock) [FLAC (tracks+.cue), l ...
  • (2010) Morcheeba / Blood Like Lemonade ( Electronic, Downtempo, Pop, Trip-h ...
  • (2008) Miley Cyrus - Breakout (Platinum Edition) (Pop) [FLAC (tracks+.cue), ...
  • (2009) Miley Cyrus / The Time of Our Lives (Pop) [FLAC (tracks+.cue), lossl ...
  • (2011) Linkin Park / Iridescent (Alternative Rock) [FLAC(image+.cue), lossl ...
  • (2011) Stargazery / Eye On The Sky (Heavy Metal) [FLAC (image+.cue), lossle ...
  • (2011) This Will Destroy You / Tunnel Blanket (Post Rock) [FLAC (tracks+.cu ...
  • (2012) Оргия Праведников / Шитрок (Rock/Progressive Rock) [FLAC (tracks+cue ...
  • (2011) Ink Stained Promises / Relations. (Metalcore, Hardcore) [FLAC (track ...
  • (2011) Gorillaz - The Singles Collection 2001-2011 (Alternative / Hip-Hop / ...
  • Информация
    Посетители, находящиеся в группе Гости, не могут оставлять комментарии к данной публикации.