вход на сайт

Имя пользователя :
Пароль :

Восстановление пароля Регистрация
(2001) GORILLAZ / Gorillaz (US Edition) (Hip-Hop) [FLAC (image+cue), lossless]
Рейтинг:
(голосов: 1)



[img]{THEME}/images/logopost.png[/img]



Исполнитель: GORILLAZ
Альбом: Gorillaz (US Edition)
Тип альбома: ОФициальный альбом
Год выпуска: 2001
Жанр: Hip-Hop
Формат: FLAC (image+cue)
Битрейт: lossless 850 kbps
Продолжительность: 01:12:42

Tреклист:
▼01. Gorillaz - Re-Hash (03:38)
02. Gorillaz - 5/4 (Five Four) (02:40)
03. Gorillaz - Tomorrow Comes Today (03:12)
04. Gorillaz - New Genious (Brother) (03:57)
05. Gorillaz - Clint Eastwood (05:40)
06. Gorillaz - Man Research (Clapper) (04:32)
07. Gorillaz - Punk(01:36)
08. Gorillaz - Sound Check (Gravity) (04:40)
09. Gorillaz - Double Bass (04:44)
10. Gorillaz - Rock the House (04:09)
11. Gorillaz - 19-2000 (03:27)
12. Gorillaz - Latin Simone (Que Pasa Contigo) (03:36)
13. Gorillaz - Starshine (03:31)
14. Gorillaz - Slow Country (03:35)
15. Gorillaz - M1 A1 (03:49)
16. Gorillaz - Dracula (04:42)
17. Gorillaz - Left Hand Suzuki Method (03:08)
18. Gorillaz - 19-2000 (Soulchild Remix) (03:29)
19. Gorillaz - Clint Eastwood (Ed Case Remix) (04:28)

Отчет EAC:
▼EAC extraction logfile from 11. September 2007, 11:51 for CD
Gorillaz / Gorillaz

Used drive: HL-DT-STRW/DVD GCC-4243N Adapter: 1ID: 0
Read mode : Secure with NO C2, accurate stream, disable cache
Read offset correction : 102
Overread into Lead-In and Lead-Out : No

Used output format : C:Program FilesExact Audio Copyflac.exe (User Defined Encoder)
320 kBit/s
Additional command line options : -8 -A tukey(0.25) -A gauss(0.1875) -b 4096 -V -T "artist=%a" -T "title=%t" -T "album=%g" -T "date=%y" -T "tracknumber=%n" -T "genre=%m" %s --sector-align

Other options:
Fill up missing offset samples with silence : Yes
Delete leading and trailing silent blocks : No
Installed external ASPI interface


Track1
Filename C:EACGorillaz - Gorillaz1 - Re-Hash.wav

Pre-gap length0:00:02.00

Peak level 99.9 %
Track quality 100.0 %
Test CRC 655D9224
Copy CRC 655D9224
Copy OK

Track2
Filename C:EACGorillaz - Gorillaz2 - 5,4.wav

Peak level 99.9 %
Track quality 100.0 %
Test CRC B5D87504
Copy CRC B5D87504
Copy OK

Track3
Filename C:EACGorillaz - Gorillaz3 - Tomorrow Comes Today.wav

Peak level 99.9 %
Track quality 100.0 %
Test CRC 019CD7DF
Copy CRC 019CD7DF
Copy OK

Track4
Filename C:EACGorillaz - Gorillaz4 - New Genious (Brother).wav

Peak level 99.9 %
Track quality 100.0 %
Test CRC 374C0B35
Copy CRC 374C0B35
Copy OK

Track5
Filename C:EACGorillaz - Gorillaz5 - Clint Eastwood.wav

Peak level 99.9 %
Track quality 100.0 %
Test CRC 3ADAABEB
Copy CRC 3ADAABEB
Copy OK

Track6
Filename C:EACGorillaz - Gorillaz6 - Man Research (Clapper).wav

&nbs
3bca1e5d938b30645fefe7b12969ccbf65169956(2001) GORILLAZ / Gorillaz (US Edition) (Hip-Hop) [FLAC (image+cue), lossless] (2001) GORILLAZ / Gorillaz (US Edition) (Hip-Hop) [FLAC (image+cue), lossless] " />

Аплоадер: Админ, дата: 4-01-2010, 03:46, торрент скачан: 359 раз

Понравилась раздача? Посмотрите эти:
  • (2011) Gorillaz / Revolving Doors. Amarillo (Hip-Hop,Electronic Rock) [320 ...
  • (2012) Gorillaz / DoYaThing (Hip-Hop, Electronic Rock) [mp3, 320 kbps/CBR]
  • (Дискография) Gorillaz (Alternative Rock / Hip-Hop / Electronic) [mp3, 320 ...
  • (2010) Gorillaz / Greatest Hits (Electronic | Rock | Alternative) [MP3, 320 ...
  • (Jazz) Ray Charles — The Very Best Of Ray Charles - 2000, FLAC (tracks), lo ...
  • (1999) Red Hot Chili Peppers - Californication (Alternative rock, Funk) [FL ...
  • (Soundtrack,2007) The Orange Box - (Half-Life 2, Portal, Team Fortress 2) [ ...
  • (Дискография, 2000-2007) SUM 41 (Punk-Rock/Pop-Punk) [FLAC (tracks + .cue), ...
  • (2007) GORILLAZ / D-Sides [Japan Edition] (Hip-Hop) [FLAC (image+cue), loss ...
  • (Дискография) GORILLAZ (Trip-Hop) [FLAC (tracks + .cue) lossless]
  • (2010 , OST) Пипец / Kick Ass (OST) [FLAC (tracks+.cue) lossless]
  • (2008) Karunesh /Enlightenment (New Age) [FLAC (image+.cue), lossless]
  • (1988) David Grisman Quintet feat. Svend Asmussen / Svingin With Svend (Jaz ...
  • (2004-2006) Amy Winehouse (Rhythm & Blues/Neo-Soul, Ska, Jazz Pop) [FLAC(t ...
  • (2010) Gorillaz / Stylo (Electronic, PopRock) [mp3, 192-320 kbps/СBR]
  • (2010) Gorillaz / WORLD CAFE SESSION [EP] (Electronic/Hip-Hop) [mp3, 256/CB ...
  • (2008) Miley Cyrus - Breakout (Platinum Edition) (Pop) [FLAC (tracks+.cue), ...
  • (2009) Miley Cyrus / The Time of Our Lives (Pop) [FLAC (tracks+.cue), lossl ...
  • (2010) Gorillaz / The Fall (Electronic, Hip-Hop) [mp3, 320/CBR]
  • (2010) [AMATORY] / Инстинкт обречённых (Nu Metal) [FLAC (tracks), lossless] ...
  • (2011) Linkin Park / Iridescent (Alternative Rock) [FLAC(image+.cue), lossl ...
  • (1999) Necrophagist / Onset Of Putrefaction (Technical Death Metal) [FLAC ( ...
  • (2011) This Will Destroy You / Tunnel Blanket (Post Rock) [FLAC (tracks+.cu ...
  • (2004) Дельфин / Запись концерта 19.11.04 (Alternative|Experimental) [FLAC ...
  • (2011) Gorillaz - The Singles Collection 2001-2011 (Alternative / Hip-Hop / ...
  • Информация
    Посетители, находящиеся в группе Гости, не могут оставлять комментарии к данной публикации.