вход на сайт

Имя пользователя :
Пароль :

Восстановление пароля Регистрация
(2009) The Black Eyed Peas / The E.N.D. (The Energy Never Dies) (Target Deluxe Edition)-2CD (RnB, Hip-Hop, Dance, Electro, Pop)[ FLAC (tracks+.cue) lossless ]
Рейтинг:
(голосов: 1)



[img]{THEME}/images/logopost.png[/img]



The Black Eyed Peas - The E.N.D. (The Energy Never Dies) (Target Deluxe Edition) - 2CD

Исполнитель: Black Eyed Peas
Альбом: The E.N.D.
Жанр: RnB, Hip-Hop, Dance, Electro, Pop
Год выпуска диска: 2009
Производитель диска: USA
Аудио кодек: FLAC
Формат: tracks+.cue
Битрейт: lossless
Продолжительность: 67:18 + 37:21

Трэклист:

CD1 (67:18)
01. Boom Boom Pow-5:07
02. Rock That Body-4:28
03. Meet Me Halfway-4:44
04. Imma Be-4:16
05. I Gotta Feeling-4:48
06. Alive-5:02
07. Missing You-4:34
08. Ring-A-Ling-4:32
09. Party All The Time-4:43
10. Out Of My Head-3:51
11. Electric City-4:08
12. Showdown-4:27
13. Now Generation-4:06
14. One Tribe-4:40
15. Rockin To The Beat-3:45
Отчёт ЕАС:
▼TextExact Audio Copy V0.99 prebeta 4 from 23. January 2008
EAC extraction logfile from 9. June 2009, 11:25
The Black Eyed Peas / The E.N.D.
Used drive : HL-DT-STDVDRWBD GBC-H20N Adapter: 0 ID: 1
Read mode : Secure
Utilize accurate stream : Yes
Defeat audio cache : Yes
Make use of C2 pointers : No
Read offset correction : 667
Overread into Lead-In and Lead-Out : No
Fill up missing offset samples with silence : Yes
Delete leading and trailing silent blocks : No
Null samples used in CRC calculations : Yes
Used interface : Native Win32 interface for Win NT & 2000
Gap handling : Appended to previous track
Used output format : User Defined Encoder
Selected bitrate : 128 kBit/s
Quality : High
Add ID3 tag : No
Command line compressor : C:Program FilesExact Audio CopyFlacflac.exe
Additional command line options : -V -8 -T "artist=%a" -T "title=%t" -T "album=%g" -T "date=%y" -T "tracknumber=%n" -T "genre=%m" %s
TOC of the extracted CD
Track | Start | Length | Start sector | End sector
---------------------------------------------------------
1 | 0:00.00 | 5:07.71 | 0 | 23095
2 | 5:07.71 | 4:28.64 | 23096 | 43259
3 | 9:36.60 | 4:44.30 | 43260 | 64589
4 | 14:21.15 | 4:16.17 | 64590 | 83806
5 | 18:37.32 | 4:48.47 | 83807 | 105453
6 | 23:26.04 | 5:02.59 | 105454 | 128162
7 | 28:28.63 | 4:34.41 | 128163 | 148753
8 | 33:03.29 | 4:32.58 | 148754 | 169211
9 | 37:36.12 | 4:43.43 | 169212 | 190479
10 | 42:19.55 | 3:51.68 | 190480 | 207872
11 | 46:11.48 | 4:08.10 | 207873 | 226482
12 | 50:19.58 | 4:27.25 | 226483 | 246532
13 | 54:47.08 | 4:06.00 | 246533 | 264982
14 | 58:53.08 | 4:40.43 | 264983 | 286025
15 | 63:33.51 | 3:45.22 | 286026 | 302922
Track 1
Filename C:EAC rips�1. Boom Boom Pow.wav
Pre-gap length 0:00:02.00
Peak level 98.8 %
Track quality 100.0 %
Test CRC 085D277F
Copy CRC 085D277F
Track not present in AccurateRip database
Copy OK
Track 2
Filename C:EAC rips�2. Rock that Body.wav
Peak level 98.8 %
Track quality 100.0 %
Test CRC 3838CC2E
Copy CRC 3838CC2E
Track not present in AccurateRip database
Copy OK
Track 3
Filename C:EAC rips�3. Meet me Halfway.wav
Peak level 98.8 %
Track quality 100.0 %
Test CRC F1D61B4F
Copy CRC F1D61B4F
Track not present in AccurateRip database
Copy OK
Track 4
Filename C:EAC rips�4. Imma Be.wav
Peak level 98.8 %
Track quality 100.0 %
Test CRC 5EF49A21
Copy CRC 5EF49A21
Track not present in AccurateRip database
Copy OK
Track 5
Filename C:EAC rips�5. I Gotta Feeling.wav
Peak level 98.8 %
Track quality 100.0 %
Test CRC D4DFC279
Copy CRC D4DFC279
Track not present in AccurateRip database
Copy OK
Track 6
Filename C:EAC rips�6. Alive.wav
Peak level 98.8 %
Track quality 100.0 %
Test CRC 8281ACD3
Copy CRC 8281ACD3
Track not present in AccurateRip database
Copy OK
Track 7
Filename C:EAC rips�7. Missing you.wav
Peak level 98.8 %
Track quality 100.0 %
Test CRC DD6DDBEA
Copy CRC DD6DDBEA
Track not present in AccurateRip database
Copy OK
Track 8
Filename C:EAC rips�8. Ring-a-Ling.wav
Peak level 100.0 %
Track quality 100.0 %
Test CRC 2AC86939
Copy CRC 2AC86939
Track not present in AccurateRip database
Copy OK
Track 9
Filename C:EAC rips�9. Party all the Time.wav
Peak level 98.8 %
Track quality 99.9 %
Test CRC 5F0F3E05
Copy CRC 5F0F3E05
Trac
d60f272bf8b7277314ae941ac978cc9b6cecc9cb(2009) The Black Eyed Peas / The E.N.D. (The Energy Never Dies) (Target Deluxe Edition)-2CD (RnB, Hip-Hop, Dance, Electro, Pop)[ FLAC (tracks+.cue) lossless ] (2009) The Black Eyed Peas / The E.N.D. (The Energy Never Dies) (Target Deluxe Edition)-2CD (RnB, Hip-Hop, Dance, Electro, Pop)[ FLAC (tracks+.cue) lossless ] " />

Аплоадер: Админ, дата: 25-10-2009, 15:01, торрент скачан: 359 раз

Понравилась раздача? Посмотрите эти:
  • (2013) Girls Generation (SNSD) - Galaxy Supernova / Galaxy Supernova (KPop) ...
  • (2011) Depeche Mode / Personal Jesus 2011 Club Promo (Electronic, Synthpop) ...
  • (2008) Karunesh /Enlightenment (New Age) [FLAC (image+.cue), lossless]
  • (2011) Orjan Nilsen / In My Opinion (Trance) [FLAC (tracks+.cue), lossless] ...
  • (2002) PPK (ППК) / ReLoad. Russian Trance (Trance) [FLAC (tracks+cue), loss ...
  • (2010, сборник) VA / CDeelder Box (Swing) [FLAC (tracks+.cue), lossless]
  • (2010) Ravenna / Debrief (Alt. Rock / Christian Rock / Indie) [FLAC (tracks ...
  • (2001-2003, сборник) VA / Acoustic Café (4xCD) (Classical, New Age) [FLAC ( ...
  • (2009) CHRIS BROWN / Graffiti original (Deluxe Edition) + Bonus tracks (RnB ...
  • (2012) High Contrast / The Agony & The Ecstasy (Drum and Bass) [FLAC (track ...
  • (2006) The Rasmus / Shot (Single) (Alternative Rock) [FLAC (tracks+.cue), l ...
  • (2012) Madonna / Superstar (Pop) [FLAC (image+.cue), lossless]
  • (2008) Miley Cyrus - Breakout (Platinum Edition) (Pop) [FLAC (tracks+.cue), ...
  • (2009) Miley Cyrus / The Time of Our Lives (Pop) [FLAC (tracks+.cue), lossl ...
  • (2010) [AMATORY] / Инстинкт обречённых (Nu Metal) [FLAC (tracks), lossless] ...
  • (2011) VA / Танцевальный Рай 27 (Pop) [FLAC (image+.cue), lossless]
  • (2011) Linkin Park / Iridescent (Alternative Rock) [FLAC(image+.cue), lossl ...
  • (2011) Rammstein / Mein Land (Neue Deutsche Harte, Industrial, Tanz-Metal) ...
  • (Дискография, 2008-2010) Suffokate (Deathcore) [FLAC (tracks+.cue), lossles ...
  • (Дискография, 2010-2011) Chelsea Grin (Deathcore) [FLAC (tracks+.cue), loss ...
  • (2011) This Will Destroy You / Tunnel Blanket (Post Rock) [FLAC (tracks+.cu ...
  • (2004) Дельфин / Запись концерта 19.11.04 (Alternative|Experimental) [FLAC ...
  • (Дискография, 2002 - 2012) Rodrigo y Gabriela (Acoustic, Flamenco, Classica ...
  • (2011) Florence & The Machine / Ceremonials (Deluxe Edition) (Indie/Alterna ...
  • (2011) Ink Stained Promises / Relations. (Metalcore, Hardcore) [FLAC (track ...
  • Информация
    Посетители, находящиеся в группе Гости, не могут оставлять комментарии к данной публикации.