вход на сайт

Имя пользователя :
Пароль :

Восстановление пароля Регистрация
(2013) Tyga / Hotel California (Deluxe Edition) (Hip-Hop) [FLAC (tracks+.cue), Lossless]
Рейтинг:
(голосов: 1)



[img]{THEME}/images/logopost.png[/img]




Исполнитель:Tyga
Страна: USA
Альбом:Hotel California (Deluxe Edition)
Тип альбома:Студийный
Год выпуска:2013
Жанр:Hip-Hop
Издатель (лейбл): Young Money, Cash Money, Republic Records
Аудиокодек: FLAC (*.flac)
Тип рипа: tracks+.cue
Битрейт: lossless
Продолжительность: 01:03:42


Wikipedia | YouTube | Twitter | Official page

Tреклист:
01. 500 Degrees (feat. Lil Wayne) (03:46)
02. Dope (feat. Rick Ross) (03:43)
03. Get Loose (02:47)
04. Diss Song (04:51)
05. Hit Em Up (feat. Jadakiss) (02:38)
06. Molly (feat. Cedric Gervais, Wiz Khalifa, Mally Mall) (03:38)
07. For The Road (feat. Chris Brown) (04:03)
08. Show You (feat. Future) (04:30)
09. It Neva Rains (feat. The Game) (04:07)
10. M.O.E. (feat. Wiz Khalifa) (03:39)
11. Hijack (03:06)
12. Get Rich (02:59)
13. Enemies (03:50)
14. Drive Fast, Live Young (05:35)
15. Palm Trees (02:53)

Deluxe Edition:
16. Dads Letter (04:15)
17. Dont Hate Tha Playa (03:39)
18. Switch Lanes (feat. The Game) (03:41)

Лог создания рипа ▼TextExact Audio Copy V1.0 beta 3 from 29. August 2011

EAC extraction logfile from 8. April 2013, 15:44

Tyga / Hotel California

Used drive : HL-DT-STBD-RE GGW-H20L Adapter: 0 ID: 1

Read mode : Secure
Utilize accurate stream : Yes
Defeat audio cache : Yes
Make use of C2 pointers : No

Read offset correction : 667
Overread into Lead-In and Lead-Out : No
Fill up missing offset samples with silence : Yes
Delete leading and trailing silent blocks : No
Null samples used in CRC calculations : Yes
Used interface : Native Win32 interface for Win NT & 2000
Gap handling : Appended to previous track

Used output format : User Defined Encoder
Selected bitrate : 32 kBit/s
Quality : High
Add ID3 tag : No
Command line compressor : C:Program Files (x86)FLACflac.exe
Additional command line options : -T "artist=%artist%" -T "title=%title%" -T "album=%albumtitle%" -T "date=%year%" -T "tracknumber=%tracknr%" -T "genre=%genre%" -8 --verify %source%


TOC of the extracted CD

Track | Start | Length | Start sector | End sector
---------------------------------------------------------
1 | 0:00.00 | 3:45.41 | 0 | 16915
2 | 3:45.41 | 3:43.07 | 16916 | 33647
3 | 7:28.48 | 2:47.11 | 33648 | 46183
4 | 10:15.59 | 4:50.41 | 46184 | 67974
5 | 15:06.25 | 2:38.27 | 67975 | 79851
6 | 17:44.52 | 3:38.33 | 79852 | 96234
7&nbs
dc2e7ddccd3644e6338c110eb0f61d80337f6ee2(2013) Tyga / Hotel California (Deluxe Edition) (Hip-Hop) [FLAC (tracks+.cue), Lossless] (2013) Tyga / Hotel California (Deluxe Edition) (Hip-Hop) [FLAC (tracks+.cue), Lossless] " />

Аплоадер: Админ, дата: 22-04-2013, 19:09, торрент скачан: 359 раз

Понравилась раздача? Посмотрите эти:
  • (2013) Paul McCartney / New (Deluxe Edition) (Rock) [FLAC (image,+.cue), lo ...
  • (2013) Prodigy & The Alchemist / Albert Einstein (Underground Hip-Hop) [FLA ...
  • (2013) Hans Zimmer / Человек из стали / Man Of Steel [Deluxe Edition] (2 CD ...
  • (2013) A$AP Rocky | Long. Live. ASAP (Deluxe Edition) (Rap|Hip-Hop) [FLAC ( ...
  • (2013) Bon Jovi / What About Now (Deluxe Edition) (Hard Rock) [FLAC (tracks ...
  • (2013) Tyga / Hotel California (Deluxe Edition) (Rap, Hip-Hop) [MP3, 320/CB ...
  • (2011) Daughtry / Break the Spell (Deluxe Edition) (Alt. Rock / Modern Rock ...
  • (2011) Michael Bublé / Christmas (Limited Edition) (Vocal Jazz, Christmas) ...
  • (2011) Lil Wayne / Tha Carter IV (Rap, Hip-Hop) [FLAC (tracks+.cue), loss ...
  • (2011) Korn (KoЯn) / The Path Of Totality (Special Edition) (Nu Metal | Dub ...
  • (2009) Dead By Sunrise / Out Of Ashes (Japanese Edition) (Alternative Rock) ...
  • (2012) Amy MacDonald / Life In A Beautiful Light (Deluxe Edition) (Acoustic ...
  • (2012) B.o.B / Strange Clouds (Deluxe Edition) (Hip-Hop/Pop) [FLAC (tracks+ ...
  • (2000) Bomfunk MCs / In Stereo (Special 2CD Edition) (Electro, Hip-Hop, Fun ...
  • (2012) Ke$ha (Kesha) - Warrior (Deluxe Edition) (Pop, Dance) [FLAC (tracks ...
  • (2011) Lil Wayne / Tha Carter IV (Target Deluxe Edition) (Hip-Hop) [FLAC (t ...
  • (2011) Chris Brown / F.A.M.E. (Deluxe Edition) (R&B) [FLAC (tracks+.cue), l ...
  • (2012) Usher / Looking 4 Myself (Deluxe Version) (R&B, Soul) [FLAC (tracks+ ...
  • (2012) Netsky / 2 (Drum & Bass, Dubstep) [FLAC (tracks+.cue), lossless]
  • (2012) Les Friction / Les Friction (Alt. Rock/Neo-Classical/Orchestral) [FL ...
  • (2012) Soulfly / Enslaved [Deluxe Edition] (Groove Metal/Thrash Metal) [FLA ...
  • (2012) KoRn feat. Skrillex / Chaos Lives In Everything (UK Promo) (Nu-metal ...
  • (2011) Phinehas / Thegodmachine (Metalcore) [FLAC (tracks+.cue), lossless]
  • (2012) Dash Berlin / #musicislife (Trance) [FLAC (tracks+.сue), lossless]
  • (2012) Schiller / Sonne (3 CD) (Limited Ultra Deluxe Edition) (Ambient/Chil ...
  • Информация
    Посетители, находящиеся в группе Гости, не могут оставлять комментарии к данной публикации.