вход на сайт

Имя пользователя :
Пароль :

Восстановление пароля Регистрация
(2013) Kanye West | Yeezus (Rap|Experimental Hip-Hop) [FLAC (tracks+.cue), lossless]
Рейтинг:
(голосов: 1)



[img]{THEME}/images/logopost.png[/img]



Исполнитель: Kanye West
Страна: США
Альбом: Yeezus
Тип альбома: Official Album
Год выпуска: 2013
Жанр: Rap|Experimental Hip-Hop
Аудиокодек: FLAC (*.flac)
Тип рипа: tracks+.cue
Битрейт: lossless
Продолжительность: 00:40:06
Наличие сканов в содержимом раздачи: нет

Tреклист:
[02:36] 01. On Sight
[03:08] 02. Black Skinhead
[03:51] 03. I Am A God
[04:16] 04. New Slaves (Feat. Frank Ocean)
[05:27] 05. Hold My Liquor (Feat. Chief Keef & Justin Vernon)
[03:54] 06. Im In It (Feat. Agent Sasco & Justin Vernon)
[06:00] 07. Blood On The Leaves
[04:03] 08. Guilt Trip (Feat. Kid Cudi)
[02:58] 09. Send It Up (Feat. King Louie)
[03:49] 10. Bound 2 (Feat. Charlie Wilson)

Лог создания рипа ▼TextX Lossless Decoder version 20130602 (143.2)

XLD extraction logfile from 2013-06-14 12:55:50 -0400

Kanye West / Yeezus

Used drive : MATSHITA DVD-R UJ-898 (revision HE13)
Media type : Pressed CD

Ripper mode : XLD Secure Ripper
Disable audio cache : OK for the drive with a cache less than 1375KiB
Make use of C2 pointers : NO
Read offset correction : 102
Max retry count : 20
Gap status : Analyzed, Appended

TOC of the extracted CD
Track | Start | Length | Start sector | End sector
---------------------------------------------------------
1 | 00:00:21 | 02:36:67 | 21 | 11787
2 | 02:37:13 | 03:08:23 | 11788 | 25910
3 | 05:45:36 | 03:51:39 | 25911 | 43274
4 | 09:37:00 | 04:16:07 | 43275 | 62481
5 | 13:53:07 | 05:26:71 | 62482 | 87002
6 | 19:20:03 | 03:54:64 | 87003 | 104616
7 | 23:14:67 | 06:00:21 | 104617 | 131637
8 | 29:15:13 | 04:03:56 | 131638 | 149918
9 | 33:18:69 | 02:58:03 | 149919 | 163271
10 | 36:16:72 | 03:49:19 | 163272 | 180465

AccurateRip Summary
Disc not found in AccurateRip DB.

All Tracks
Album gain : -10.26 dB
Peak : 1.000000
Statistics
Read error : 0
Jitter error (maybe fixed) : 0
Retry sector count : 0
Damaged sector count : 0

Track 01
Filename : /01 Kanye West - On Sight.flac
Pre-gap length : 00:02:21

Track gain : -10.82 dB
Peak : 1.000000
CRC32 hash (test run) : 626B2FCE
CRC32 hash : 626B2FCE
CRC32 hash (skip zero) &n
a5b5c3a47648b8d3d9e6e5d710f4c07e65c8c86d(2013) Kanye West | Yeezus (Rap|Experimental Hip-Hop) [FLAC (tracks+.cue), lossless] (2013) Kanye West | Yeezus (Rap|Experimental Hip-Hop) [FLAC (tracks+.cue), lossless] " />

Аплоадер: Админ, дата: 3-07-2013, 15:38, торрент скачан: 359 раз

Понравилась раздача? Посмотрите эти:
  • (2013) Kanye West | Yeezus (Rap|Experimental Hip-Hop) [MP3, 320|СBR]
  • (2012) The Lumineers / The Lumineers (Indie-folk, Folk-rock) [FLAC (tracks+ ...
  • (2013) Bullet For My Valentine / Temper Temper (Japanese Deluxe Edition) (M ...
  • (2012) Владимир Кузьмин / Endorfin (Русский Рок) [FLAC (image+.cue), lossle ...
  • (2010) Katie Melua / The House ( jazz-pop, vocal jazz) [FLAC (tracks + .cu ...
  • (2011) Moby / Destroyed (Electronic, Downtempo, Ambient) [FLAC (tracks+.cue ...
  • (2010) Sungha Jung / Perfect Blue (Acoustic, Fingerstyle Guitar) [FLAC (tra ...
  • (2012) Bruce Springsteen / Wrecking Ball (Folk Rock) [FLAC (tracks+.cue),l ...
  • (2012) Norah Jones / Little Broken Hearts (Vocal Jazz, Alternative Rock) [F ...
  • (2009) Paul Cardall / Sacred Piano (New Age) [FLAC (tracks+.cue), lossless] ...
  • (2012) Hans Zimmer / The Dark Knight Rises (Film score) [FLAC (tracks+.cu ...
  • (2012) Mouse On Mars / Parastrophics (Leftfield, Abstract, Rhythmic Noise, ...
  • (2012) Linkin Park / LP Underground 12 (Alternative Rock) [FLAC (tracks+.cu ...
  • (2010) Enduser / 1-3 (DnB, Dubstep, Breakcore) [FLAC (tracks+.cue), lossles ...
  • (2012) Lana Del Rey / Born To Die (Indie Pop) [FLAC (tracks+.cue), lossless ...
  • (2012) The Fray / Scars & Stories (Alternative/Rock/Piano Rock) [FLAC (trac ...
  • (2012) Unheilig / Lichter der Stadt (Limited Edition, 2CD) (Industrial, Got ...
  • (2012) Young Guns / Bones (Alternative Rock) [FLAC (tracks +.cue), lossless ...
  • (2012) Switchfoot / Vice Re-Verses (Remixes) (Alternative, Christian Rock, ...
  • (2011) 7eventh Time Down / Alive In You (Alternative Rock/Modern Rock/Chris ...
  • Информация
    Посетители, находящиеся в группе Гости, не могут оставлять комментарии к данной публикации.