вход на сайт

Имя пользователя :
Пароль :

Восстановление пароля Регистрация
(2011) Gorillaz - The Singles Collection 2001-2011 (Alternative / Hip-Hop / Rock) [FLAC (image+.cue), lossless]
Рейтинг:
(голосов: 1)



[img]{THEME}/images/logopost.png[/img]



Исполнитель: Gorillaz
Альбом: The Singles Collection (EU Edition)
Тип альбома: ОФициальный альбом
Год выпуска: 2011
Жанр: Alternative / Hip-Hop / Rock
Аудиокодек: FLAC (*.flac)
Тип рипа: image+.cue
Битрейт: lossless
Продолжительность: 00:56:01


Tреклист:
01. Tomorrow Comes Today [0:03:13.45]
02. Clint Eastwood [0:05:42.42]
03. 19-2000 [0:03:27.64]
04. Rock The House [0:04:09.15]
05. Feel Good Inc [0:03:42.48]
06. Dare [0:03:33.13]
07. Dirty Harry [0:03:50.34]
08. Kids With Guns [0:03:46.63]
09. El Manana [0:03:51.02]
10. Stylo [0:03:52.74]
11. Superfast Jellyfish [0:02:58.01]
12. On Melancholy Hill [0:03:28.58]
13. Doncamatic [0:03:20.45]
14. Clint Eastwood (Ed Case/Sweetie Irie Refix) [0:03:41.14]
15. 19-2000 (Soulchild Remix) [0:03:29.29]

Лог создания рипа ▼TextExact Audio Copy V0.99 prebeta 5 from 4. May 2009

EAC extraction logfile from 24. November 2011, 20:31

Gorillaz / The Singles Collection 2001 - 2011

Used drive : SlimtypeBD E DS4E1S Adapter: 0 ID: 1

Read mode : Secure
Utilize accurate stream : Yes
Defeat audio cache : Yes
Make use of C2 pointers : No

Read offset correction : 6
Overread into Lead-In and Lead-Out : No
Fill up missing offset samples with silence : Yes
Delete leading and trailing silent blocks : No
Null samples used in CRC calculations : Yes
Used interface : Native Win32 interface for Win NT & 2000

Used output format : User Defined Encoder
Selected bitrate : 768 kBit/s
Quality : High
Add ID3 tag : No
Command line compressor : C:Program Files (x86)Exact Audio CopyFlacflac.exe
Additional command line options : -T "DATE=%y" -T "GENRE=%m" -8 -V %s

TOC of the extracted CD

Track | Start | Length | Start sector | End sector
---------------------------------------------------------
1 | 0:00.00 | 3:13.45 | 0 | 14519
2 | 3:13.45 | 5:42.42 | 14520 | 40211
3 | 8:56.12 | 3:27.64 | 40212 | 55800
4 | 12:24.01 | 4:09.15 | 55801 | 74490
5 | 16:33.16 | 3:42.48 | 74491 | 91188
6 | 20:15.64 | 3:33.13 | 91189 | 107176
7 | 23:49.02 | 3:50.34 | 107177 | 124460
8 | 27:39.36 | 3:46.63 | 124461 | 141473
9 | 31:26.24 | 3:51.02 | 141474 | 158800
10 | 35:17.26 | 3:52.74 | 158801 | 176274
11 | 39:10.25 | 2:58.01 | 176275 | 189625
12 | 42:08.26 | 3:28
ecb2db5651e7f8117f2e28bcae00b615e40ce174(2011) Gorillaz - The Singles Collection 2001-2011 (Alternative / Hip-Hop / Rock) [FLAC (image+.cue), lossless] (2011) Gorillaz - The Singles Collection 2001-2011 (Alternative / Hip-Hop / Rock) [FLAC (image+.cue), lossless] " />

Аплоадер: Админ, дата: 9-08-2012, 01:38, торрент скачан: 359 раз

Понравилась раздача? Посмотрите эти:
  • (1996) George Michael / Older (1st Press Japan) (Electronic, Pop/Rock) [FLA ...
  • (2013) Paul McCartney / New (Deluxe Edition) (Rock) [FLAC (image,+.cue), lo ...
  • (2001) GORILLAZ / Gorillaz (US Edition) (Hip-Hop) [FLAC (image+cue), lossle ...
  • (2007) GORILLAZ / D-Sides [Japan Edition] (Hip-Hop) [FLAC (image+cue), loss ...
  • (2009) ONE REPUBLIC / Waking Up (Pop-Rock/Alternative) [FLAC (tracks+.cue) ...
  • (Дискография) GORILLAZ (Trip-Hop) [FLAC (tracks + .cue) lossless]
  • (2011) The Prodigy / Worlds On Fire (Big Beat, Rave) [FLAC (image+.cue), lo ...
  • (2011) Linkin Park / LP Underground 11 (Alternative Rock) [FLAC (Image+cue) ...
  • (2009) Dead By Sunrise / Out Of Ashes (Japanese Edition) (Alternative Rock) ...
  • (Дискография, 1988-2011) Kingdom Come (Hard&Heavy,Glam Metal) [FLAC (image+ ...
  • (2006) The Rasmus / Shot (Single) (Alternative Rock) [FLAC (tracks+.cue), l ...
  • (2011) Linkin Park / Iridescent (Alternative Rock) [FLAC(image+.cue), lossl ...
  • (2011) Слот / F5 (Alternative Metal) [FLAC (image+.cue)lossless]
  • (2011) Слот / Break The Code (Alternative Metal) [FLAC (image+.cue)lossless ...
  • (2011) Дельфин / Существо (Alternative|Experimental) [FLAC (tracks+.cue), l ...
  • (2011) Ленинград / Хна (Rock) [FLAC (tracks+.cue), lossless]
  • (2012) The Cranberries / Roses (Alternative Rock / Pop-Rock) [FLAC (tracks+ ...
  • (2012) Anneke van Giersbergen / Everything Is Changing (Alternative Rock/Fe ...
  • (2011) Downhere / On The Altar Of Love (Alternative Rock/Christian Rock) [F ...
  • (2011) Skindred / Union Black (Alternative Metal, Ragga-Metal) [FLAC (track ...
  • Информация
    Посетители, находящиеся в группе Гости, не могут оставлять комментарии к данной публикации.