вход на сайт

Имя пользователя :
Пароль :

Восстановление пароля Регистрация
(2006) The Rasmus / Shot (Single) (Alternative Rock) [FLAC (tracks+.cue), lossless]
Рейтинг:
(голосов: 1)



[img]{THEME}/images/logopost.png[/img]



Исполнитель: The Rasmus
Страна: Finland
Альбом: Shot
Тип альбома: Single
Год выпуска: 2006
Жанр: Alternative Rock
Каталожный номер:06024 9855309 1
Издатель: Playground Music Scandinavia
Аудиокодек: FLAC (*.flac)
Тип рипа: tracks+.cue
Битрейт: lossless
Продолжительность: 00:16:31


Tреклист:
01.Shot 04:17
02.Keep Your Heart Broken (Live) 04:11
03.Shot (Live) 04:42
04.Open My Eyes (Acoustic Version) 05:53

Лог создания рипа ▼TextExact Audio Copy V1.0 beta 1 from 15. November 2010

EAC extraction logfile from 7. March 2011, 11:31

The Rasmus / Shot

Used drive : PIONEER DVD-RW DVR-110D Adapter: 0 ID: 0

Read mode : Secure
Utilize accurate stream : Yes
Defeat audio cache : Yes
Make use of C2 pointers : No

Read offset correction : 48
Overread into Lead-In and Lead-Out : No
Fill up missing offset samples with silence : Yes
Delete leading and trailing silent blocks : No
Null samples used in CRC calculations : Yes
Used interface : Native Win32 interface for Win NT & 2000
Gap handling : Appended to previous track

Used output format : User Defined Encoder
Selected bitrate : 128 kBit/s
Quality : High
Add ID3 tag : No
Command line compressor : C:Program FilesExact Audio CopyFlacflac.exe
Additional command line options : -V -8 -T "artist=%a" -T "title=%t" -T "album=%g" -T "date=%y" -T "tracknumber=%n" -T "genre=%m" %s

TOC of the extracted CD

Track | Start | Length | Start sector | End sector
---------------------------------------------------------
1 | 0:00.00 | 4:17.23 | 0 | 19297
2 | 4:17.23 | 4:11.60 | 19298 | 38182
3 | 8:29.08 | 4:42.12 | 38183 | 59344
4 | 13:11.20 | 3:21.35 | 59345 | 74454
5 | 19:04.55 | 11:47.27 | 85855 | 138906

Track 1

Filename D:WHAT.CDThe Rasmus - Shot (2006) - FLAC1 - The Rasmus - Shot.wav

Pre-gap length 0:00:02.00

Peak level 98.8 %
Extraction speed 4.3 X
Track quality 100.0 %
Test CRC 1A32C8A4
Copy CRC 1A32C8A4
Track not present in AccurateRip database
Copy OK

Track 2

Filename D:WHAT.CDThe Rasmus - Shot (2006) - FLAC2 - The Rasmus - Keep Your Heart Broken (Live).wav

Pre-gap length 0:00:00.42

Peak level 96.8 %
Extraction speed 4.6 X
Track quality 100.0 %
Test CRC AAC20951
Copy CRC AAC20951
T
f17d2b4f3979fa6a5e1a471ed3929d50f6d669b2(2006) The Rasmus / Shot (Single) (Alternative Rock) [FLAC (tracks+.cue), lossless] (2006) The Rasmus / Shot (Single) (Alternative Rock) [FLAC (tracks+.cue), lossless] " />

Аплоадер: Админ, дата: 15-01-2013, 23:40, торрент скачан: 359 раз

Понравилась раздача? Посмотрите эти:
  • (2013) Girls Generation (SNSD) - Galaxy Supernova / Galaxy Supernova (KPop) ...
  • (2010) Zaz / Zaz (Nu jazz, Chanson, Soul) [FLAC (tracks+.cue), lossless]
  • (2011) Depeche Mode / Personal Jesus 2011 Club Promo (Electronic, Synthpop) ...
  • (2008) Karunesh /Enlightenment (New Age) [FLAC (image+.cue), lossless]
  • (2011) Orjan Nilsen / In My Opinion (Trance) [FLAC (tracks+.cue), lossless] ...
  • (2002) PPK (ППК) / ReLoad. Russian Trance (Trance) [FLAC (tracks+cue), loss ...
  • (2010, сборник) VA / CDeelder Box (Swing) [FLAC (tracks+.cue), lossless]
  • (2010) Ravenna / Debrief (Alt. Rock / Christian Rock / Indie) [FLAC (tracks ...
  • (2011) B.B. King / Icon (Blues) [FLAC (tracks+.cue), lossless]
  • (1996) The Rasmus / Peep (Finnish Version) (Alternative Rock) [FLAC (tracks ...
  • (2012) High Contrast / The Agony & The Ecstasy (Drum and Bass) [FLAC (track ...
  • (2012) Madonna / Superstar (Pop) [FLAC (image+.cue), lossless]
  • (2010) [AMATORY] / Инстинкт обречённых (Nu Metal) [FLAC (tracks), lossless] ...
  • (2011) Linkin Park / Iridescent (Alternative Rock) [FLAC(image+.cue), lossl ...
  • (2011) Rammstein / Mein Land (Neue Deutsche Harte, Industrial, Tanz-Metal) ...
  • (2011) Дельфин / Существо (Alternative|Experimental) [FLAC (tracks+.cue), l ...
  • (2011) This Will Destroy You / Tunnel Blanket (Post Rock) [FLAC (tracks+.cu ...
  • (2011) Ленинград / Хна (Rock) [FLAC (tracks+.cue), lossless]
  • (2004) Дельфин / Запись концерта 19.11.04 (Alternative|Experimental) [FLAC ...
  • (2012) Nightwish / The Crow, The Owl And The Dove (Sympho-Power Metal) [FLA ...
  • (2011) Downhere / On The Altar Of Love (Alternative Rock/Christian Rock) [F ...
  • (2011) Florence & The Machine / Ceremonials (Deluxe Edition) (Indie/Alterna ...
  • (2009) Exivious (Ex. Cynic) / Exivious (Progressive Metal/Death Metal) [FLA ...
  • (2012) KoRn feat. Skrillex / Chaos Lives In Everything (UK Promo) (Nu-metal ...
  • (2011) Ink Stained Promises / Relations. (Metalcore, Hardcore) [FLAC (track ...
  • Информация
    Посетители, находящиеся в группе Гости, не могут оставлять комментарии к данной публикации.