вход на сайт

Имя пользователя :
Пароль :

Восстановление пароля Регистрация
(Дискография, 2009-2010) Apati (Black Metal/Depressive Rock) [APE/FLAC (image+.cue), lossless]
Рейтинг:
(голосов: 1)



[img]{THEME}/images/logopost.png[/img]



Дискография

Исполнитель: Apati
Страна: Швеция
Жанр: Black Metal / Depressive Rock
Аудиокодек: APE (*.ape) / FLAC (*.flac)
Тип рипа: image+.cue
Битрейт: lossless
Лог файлы: присутствуют
Продолжительность: 00:53:45 + 00:56:47

Об исполнителе:
▼Осенью 2007 года, проект Apati был образован C9H13N и Obehag, что бы выразить своё отношение к миру. Их друг - Professor X, проникся их мыслями и чувствами, вскоре он присоединился к проекту .
И вот втроём они начали писать музыку, но чего-то не хватало. Весной 2008 к проекту присоединился Patient C.
Когда же группа собралась, Professor X ненадолго её покинул, также C9H13N уехал из Швеции. Professor X был выкинут из группы, C9H13N вернулся в Швецию на следующий год. В 2010 Patient C ушёл из группы, а Professor X вернулся под именем X.
После записи первого альбома музыканты познакомились хорошим человеком по имени Håkan который работает на лейбле Total Holocaust Records. Håkan помог издать им альбом.2 июля 2011 Obehag покинул команду. Проект прекратил свое существование 23 июля ,ровно через 3 недели после ухода из группы Obehag умер от передозировки наркотиков.

СОСТАВ:
Obehag - вокал & гитара
C9H13N - вокал & тексты
X - гитара, бас

ДИСКОГРАФИЯ:
Eufori (2009)
Morgondagen inställd i brist på intresse (2010)

Тип альбомов (Студийные):▼
2009 - Eufori (APE (*.ape), image+.cue) ▼


Продолжительность: 00:53:45

Tреклист:
1. Höst 06:44
2. Sömnlösa Nätter 06:18
3. Nykter Idag 04:15
4. Eufori 05:10
5. Likgiltighetens Slutstation 05:13
6. Verklighetsflykt Är Min Verklighet 03:39
7. En Gammal Vän 04:20
8. Livet Ur en Dåres Synvinkel 04:53
9. Blodrött Hav 06:36
10. Allt Jag Aldrig Haft 06:19

Лог создания рипа ▼TextExact Audio Copy V0.99 prebeta 5 from 4. May 2009

EAC extraction logfile from 31. May 2010, 15:42

Apati / Eufori

Used drive : SONY CD-RW CRX320E Adapter: 1 ID: 0

Read mode : Secure
Utilize accurate stream : Yes
Defeat audio cache : Yes
Make use of C2 pointers : No

Read offset correction : 6
Overread into Lead-In and Lead-Out : No
Fill up missing offset samples with silence : Yes
Delete leading and trailing silent blocks : No
Null samples used in CRC calculations : Yes
Used interface : Installed external ASPI interface

Used output format : Monkeys Audio Lossless Encoder
Selected bitrate : Fast Lossless Compression
Quality : High
Add ID3 tag : No
Command line compressor : C:Program FilesMonkeys AudioMAC.exe

TOC of the extracted CD

Track | Start | Length | Start sector | End sector
---------------------------------------------------------
1 | 0:00.00 | 6:46.07 | 0 | 30456
2 | 6:46.07 | 6:20.20 | 30457 | 58976
3 | 13:06.27 | 4:17.56 | 58977 | 78307
4 | 17:24.08 | 5:12.71 | 78308 | 101778
5 | 22:37.04 | 5:15.07 | 101779 &nbs
deb1c90a3f8359c2ec5f09a254dba730a2b7d10c(Дискография, 2009-2010) Apati (Black Metal/Depressive Rock) [APE/FLAC (image+.cue), lossless] (Дискография, 2009-2010) Apati (Black Metal/Depressive Rock) [APE/FLAC (image+.cue), lossless] " />

Аплоадер: Админ, дата: 16-01-2013, 00:00, торрент скачан: 359 раз

Понравилась раздача? Посмотрите эти:
  • (1993) Mick Jagger / Wandring Spirit (Rock) [FLAC(image+.cue), lossless]
  • (1996) George Michael / Older (1st Press Japan) (Electronic, Pop/Rock) [FLA ...
  • (2014) Ozzy Osbourne / Dreamer (Hard Rock, Heavy Metal, Power Ballad) [FLAC ...
  • (2009) Ozzy Osbourne / Greatest Hits (2CD) (Heavy Metal, Hard Rock) [FLAC ( ...
  • (2010) Deftones / Diamond Eyes (Nu metal / Alternative) [FLAC, (tracks+ cu ...
  • (2010) Сергей Трофимов (Трофим) / Всё не важно (Шансон) [FLAC(image+.cue), ...
  • (2010) Ассаи / Лифт (Rap) [FLAC(image+.cue), lossless]
  • (2010) Tarja Turunen / What Lies Beneath (Limited Edition) (Symphonic Metal ...
  • (Дискография) Supertramp (Progressive & Art-Rock) [APE/FLAC (image/tracks+. ...
  • (2001) Bloodthorn / Under the Reign of Terror (Black/Death Metal) [Flac(tra ...
  • (2008) Юрий Наумов / Рок как будто Блюз (Blues) [FLAC (Image+.cue), lossles ...
  • (2009) D-Man 55 / 7.62 Б-30 (Rap) [FLAC (image+.cue) lossless]
  • (Дискография, 1988-2011) Kingdom Come (Hard&Heavy,Glam Metal) [FLAC (image+ ...
  • (2011) 3 Doors Down / Time Of My Life [Deluxe Edition] (Alternative Rock/Po ...
  • (1996) DJ Dado / The Album (Electronic, Dream trance) [FLAC (image+.сue), l ...
  • (2012) Axel Rudi Pell / Circle Of The Oath (Limited Edition Digipack) (Melo ...
  • (2012) Kreator / Phantom Antichrist (Thrash Metal) [FLAC (image+.cue), loss ...
  • (Дискография, 1987-1999) Obliveon (Technical Thrash Metal) [FLAC (image+.cu ...
  • (2009) Linkin Park / Underground 09/LPU 9 (Alt.Rock/Nu-Metal) [FLAC (track ...
  • (2009) Чиж & Co / Лучшее. Золотая коллекция (Rock) [FLAC (image+.cue), loss ...
  • (2011) JORN / Live In Black (Heavy/Progressive Metal ) [FLAC (image+.cue), ...
  • (2011) Слот / F5 (Alternative Metal) [FLAC (image+.cue)lossless]
  • (2012) RAGE / 21 (Limited Edition, 2CD) (Heavy Metal/Thrash Metal) [FLAC ( ...
  • (2011) Lou Reed & Metallica / Lulu (Heavy Metal, Hard Rock) [FLAC (image+.c ...
  • (2010) Punish My Heaven / First Punishment (Melodic Death Metal, Metalcore) ...
  • Информация
    Посетители, находящиеся в группе Гости, не могут оставлять комментарии к данной публикации.