вход на сайт

Имя пользователя :
Пароль :

Восстановление пароля Регистрация
(1993) Coverdale & Page / Coverdale & Page (2011 Sony Music Japan, Blu-Spec CD. SICP 20329) (Hard Rock) [FLAC (image+.cue), Lossless]
Рейтинг:
(голосов: 1)



[img]{THEME}/images/logopost.png[/img]




Исполнитель: COVERDALE & PAGE
Страна: England
Альбом: Coverdale & Page
Тип альбома: Студийный
Год выпуска: 2011
Жанр: Hard Rock
Год первоначального издания альбома: 1993
Страна (Издатель, Каталожный номер): Sony Music Japan, Blu-Spec CD. SICP 20329
Аудиокодек: FLAC
Тип рипа: image+.cue
Битрейт: lossless
Лог файл: присутствует
Продолжительность: 01:01:15

ОБ ИСПОЛНИТЕЛЕ:
▼Непосредственно о самих исполнителях думаю писать излишне. Сомневаюсь, что найдётся любитель рока, который не знаком с ними. Об альбоме можно сказать коротко - высший пилотаж. Именно та музыка, которую ожидаешь от таких звёзд харда.TRACKLIST:
01. Shake My Tree (04:53)
02. Waiting On You (05:16)
03. Take Me ForA Little While (06:15)
04. Pride And Joy (03:31)
05. Over Now (05:23)
06. Feeling Hot (04:11)
07. Easy Does It (05:52)
08. Take A Look At Yourself (05:02)
09. Dont Leave Me This Way (07:52)
10. Absolution Blues (05:59)
11. Whisper A Prayer For The Dying (06:55)


Лог создания рипа
▼TextExact Audio Copy V1.0 beta 3 from 29. August 2011

EAC extraction logfile from 7. March 2012, 23:39

David Coverdale Jimmy Page / Coverdale Page

Used drive : HL-DT-STDVDRAM GSA-H60N Adapter: 2 ID: 0

Read mode : Secure
Utilize accurate stream : Yes
Defeat audio cache : Yes
Make use of C2 pointers : No

Read offset correction : 667
Overread into Lead-In and Lead-Out : No
Fill up missing offset samples with silence : Yes
Delete leading and trailing silent blocks : No
Null samples used in CRC calculations : Yes
Used interface : Native Win32 interface for Win NT & 2000

Used output format : Internal WAV Routines
Sample format : 44.100 Hz; 16 Bit; Stereo


TOC of the extracted CD

Track | Start | Length | Start sector | End sector
---------------------------------------------------------
1 | 0:00.00 | 4:53.10 | 0 | 21984
2 | 4:53.10 | 5:16.09 | 21985 | 45693
3 | 10:09.19 | 6:15.73 | 45694 | 73891
4 | 16:25.17 | 3:31.59 | 73892 | 89775
5 | 19:57.01 | 5:23.60 | 89776 | 114060
6 | 25:20.61 | 4:11.39 | 114061 | 132924
7 | 29:32.25 | 5:52.46 | 132925 | 159370
8 | 35:24.71 | 5:02.31 | 159371 | 182051
9 | 40:27.27 | 7:52.73 | 182052 | 217524
10 | 48:20.25 | 5:59.41 | 217525 | 244490
11 | 54:19.66 | 6:55.23 | 244491 | 275638


Range status and errors

Selected range

Filename C:Documents and SettingsAdminРабочий столLossless
8d90355a2db312ccb873f4366af002924e24f577(1993) Coverdale & Page / Coverdale & Page (2011 Sony Music Japan, Blu-Spec CD. SICP 20329) (Hard Rock) [FLAC (image+.cue), Lossless] (1993) Coverdale & Page / Coverdale & Page (2011 Sony Music Japan, Blu-Spec CD. SICP 20329) (Hard Rock) [FLAC (image+.cue), Lossless] " />

Аплоадер: Админ, дата: 11-01-2013, 20:46, торрент скачан: 359 раз

Понравилась раздача? Посмотрите эти:
  • (1993) Mick Jagger / Wandring Spirit (Rock) [FLAC(image+.cue), lossless]
  • (1996) George Michael / Older (1st Press Japan) (Electronic, Pop/Rock) [FLA ...
  • (1993) Coverdale & Page / Coverdale & Page (EMI Holland)(Hard Rock) [FLAC ( ...
  • (2004) Aerosmith / Honkin On Bobo (Sony Music Austria) (Blues Rock) [APE (i ...
  • (2013) Мумий Тролль / SOS Матросу - 2013, (Rock) [FLAC (image+.cue), lossle ...
  • (2014) Ozzy Osbourne / Dreamer (Hard Rock, Heavy Metal, Power Ballad) [FLAC ...
  • (2013) Bon Jovi / What About Now (Deluxe Edition) (Hard Rock) [FLAC (tracks ...
  • (2007) GORILLAZ / D-Sides [Japan Edition] (Hip-Hop) [FLAC (image+cue), loss ...
  • (2010) Алиса / Ъ (The Hard Sign) (Hard Rock) [WavPack (iso.wv (image+.cue)) ...
  • (2011, 5CD Box set) Boney M / Original Album Classics (Reggae, Disco, R&B, ...
  • (1984) Van Halen / 1984 (Japanese 1984 SHM-CD Edition) (Hard & Heavy) [APE ...
  • (Дискография, 1988-2011) Kingdom Come (Hard&Heavy,Glam Metal) [FLAC (image+ ...
  • (2011 15CD Box Set Digitally Remaster) Rush - Sectors (Rock, Progressive R ...
  • (2011, 5CD Box Set) Blue Oyster Cult - Original Album Classics (Hard Rock) ...
  • (1993) Крис Кельми / Greatest Hits (Pop-Rock) [FLAC (image+.cue), lossless] ...
  • (2011) Сурганова & Оркестр / Увидимся скоро (Rock) [FLAC (image+.cue), loss ...
  • (2011) Metallica / Beyond Magnetic (Thrash Metal) [FLAC (image+.cue), lossl ...
  • (2012) Fox / 2012 (Melodic Hard Rock) [FLAC (image +.cue), lossless]
  • (2011) Lou Reed & Metallica / Lulu (Heavy Metal, Hard Rock) [FLAC (image+.c ...
  • (2012) Muse / The 2nd Law (Alternative Rock, Progressive Rock) [FLAC (image ...
  • Информация
    Посетители, находящиеся в группе Гости, не могут оставлять комментарии к данной публикации.